  0
SECTION
  2
HEADER
  9
$ACADVER
  1
AC1015
  9
$ACADMAINTVER
 70
    20
  9
$DWGCODEPAGE
  3
ANSI_932
  9
$INSBASE
 10
0.0
 20
0.0
 30
0.0
  9
$EXTMIN
 10
-0.0425346845286185
 20
-0.0300885618821667
 30
-0.0000000000112498
  9
$EXTMAX
 10
2789.553734678998
 20
1973.299228625456
 30
0.0000000000002956
  9
$LIMMIN
 10
0.0
 20
0.0
  9
$LIMMAX
 10
297.0
 20
209.0
  9
$ORTHOMODE
 70
     1
  9
$REGENMODE
 70
     1
  9
$FILLMODE
 70
     1
  9
$QTEXTMODE
 70
     0
  9
$MIRRTEXT
 70
     1
  9
$LTSCALE
 40
1.0
  9
$ATTMODE
 70
     1
  9
$TEXTSIZE
 40
2.5
  9
$TRACEWID
 40
1.0
  9
$TEXTSTYLE
  7
Standard
  9
$CLAYER
  8
本体
  9
$CELTYPE
  6
ByLayer
  9
$CECOLOR
 62
   256
  9
$CELTSCALE
 40
3.0
  9
$DISPSILH
 70
     0
  9
$DIMSCALE
 40
10.0
  9
$DIMASZ
 40
1.5
  9
$DIMEXO
 40
2.0
  9
$DIMDLI
 40
3.75
  9
$DIMRND
 40
0.0
  9
$DIMDLE
 40
0.0
  9
$DIMEXE
 40
1.5
  9
$DIMTP
 40
0.0
  9
$DIMTM
 40
0.0
  9
$DIMTXT
 40
3.0
  9
$DIMCEN
 40
2.5
  9
$DIMTSZ
 40
0.0
  9
$DIMTOL
 70
     0
  9
$DIMLIM
 70
     0
  9
$DIMTIH
 70
     0
  9
$DIMTOH
 70
     0
  9
$DIMSE1
 70
     0
  9
$DIMSE2
 70
     0
  9
$DIMTAD
 70
     1
  9
$DIMZIN
 70
     8
  9
$DIMBLK
  1
Open30
  9
$DIMASO
 70
     1
  9
$DIMSHO
 70
     1
  9
$DIMPOST
  1

  9
$DIMAPOST
  1

  9
$DIMALT
 70
     0
  9
$DIMALTD
 70
     3
  9
$DIMALTF
 40
0.03937007874016
  9
$DIMLFAC
 40
1.0
  9
$DIMTOFL
 70
     1
  9
$DIMTVP
 40
0.0
  9
$DIMTIX
 70
     0
  9
$DIMSOXD
 70
     0
  9
$DIMSAH
 70
     0
  9
$DIMBLK1
  1

  9
$DIMBLK2
  1

  9
$DIMSTYLE
  2
ISO-25
  9
$DIMCLRD
 70
     0
  9
$DIMCLRE
 70
     0
  9
$DIMCLRT
 70
     0
  9
$DIMTFAC
 40
1.0
  9
$DIMGAP
 40
0.5
  9
$DIMJUST
 70
     0
  9
$DIMSD1
 70
     0
  9
$DIMSD2
 70
     0
  9
$DIMTOLJ
 70
     0
  9
$DIMTZIN
 70
     8
  9
$DIMALTZ
 70
     0
  9
$DIMALTTZ
 70
     0
  9
$DIMUPT
 70
     0
  9
$DIMDEC
 70
     2
  9
$DIMTDEC
 70
     2
  9
$DIMALTU
 70
     2
  9
$DIMALTTD
 70
     3
  9
$DIMTXSTY
  7
Standard
  9
$DIMAUNIT
 70
     0
  9
$DIMADEC
 70
     0
  9
$DIMALTRND
 40
0.0
  9
$DIMAZIN
 70
     0
  9
$DIMDSEP
 70
    46
  9
$DIMATFIT
 70
     0
  9
$DIMFRAC
 70
     0
  9
$DIMLDRBLK
  1
Open30
  9
$DIMLUNIT
 70
     2
  9
$DIMLWD
 70
    -2
  9
$DIMLWE
 70
    -2
  9
$DIMTMOVE
 70
     0
  9
$LUNITS
 70
     2
  9
$LUPREC
 70
     4
  9
$SKETCHINC
 40
1.0
  9
$FILLETRAD
 40
9.9
  9
$AUNITS
 70
     0
  9
$AUPREC
 70
     0
  9
$MENU
  1
.
  9
$ELEVATION
 40
0.0
  9
$PELEVATION
 40
0.0
  9
$THICKNESS
 40
0.0
  9
$LIMCHECK
 70
     0
  9
$CHAMFERA
 40
10.0
  9
$CHAMFERB
 40
10.0
  9
$CHAMFERC
 40
20.0
  9
$CHAMFERD
 40
0.0
  9
$SKPOLY
 70
     0
  9
$TDCREATE
 40
2453510.558637211
  9
$TDUCREATE
 40
2453510.183637211
  9
$TDUPDATE
 40
2457557.646822928
  9
$TDUUPDATE
 40
2457557.271822929
  9
$TDINDWG
 40
0.0702622338
  9
$TDUSRTIMER
 40
0.0702622338
  9
$USRTIMER
 70
     1
  9
$ANGBASE
 50
0.0
  9
$ANGDIR
 70
     0
  9
$PDMODE
 70
     0
  9
$PDSIZE
 40
0.0
  9
$PLINEWID
 40
0.0
  9
$SPLFRAME
 70
     0
  9
$SPLINETYPE
 70
     6
  9
$SPLINESEGS
 70
     8
  9
$HANDSEED
  5
20BE
  9
$SURFTAB1
 70
     6
  9
$SURFTAB2
 70
     6
  9
$SURFTYPE
 70
     6
  9
$SURFU
 70
     6
  9
$SURFV
 70
     6
  9
$UCSBASE
  2

  9
$UCSNAME
  2

  9
$UCSORG
 10
0.0
 20
0.0
 30
0.0
  9
$UCSXDIR
 10
1.0
 20
0.0
 30
0.0
  9
$UCSYDIR
 10
0.0
 20
1.0
 30
0.0
  9
$UCSORTHOREF
  2

  9
$UCSORTHOVIEW
 70
     0
  9
$UCSORGTOP
 10
0.0
 20
0.0
 30
0.0
  9
$UCSORGBOTTOM
 10
0.0
 20
0.0
 30
0.0
  9
$UCSORGLEFT
 10
0.0
 20
0.0
 30
0.0
  9
$UCSORGRIGHT
 10
0.0
 20
0.0
 30
0.0
  9
$UCSORGFRONT
 10
0.0
 20
0.0
 30
0.0
  9
$UCSORGBACK
 10
0.0
 20
0.0
 30
0.0
  9
$PUCSBASE
  2

  9
$PUCSNAME
  2

  9
$PUCSORG
 10
0.0
 20
0.0
 30
0.0
  9
$PUCSXDIR
 10
1.0
 20
0.0
 30
0.0
  9
$PUCSYDIR
 10
0.0
 20
1.0
 30
0.0
  9
$PUCSORTHOREF
  2

  9
$PUCSORTHOVIEW
 70
     0
  9
$PUCSORGTOP
 10
0.0
 20
0.0
 30
0.0
  9
$PUCSORGBOTTOM
 10
0.0
 20
0.0
 30
0.0
  9
$PUCSORGLEFT
 10
0.0
 20
0.0
 30
0.0
  9
$PUCSORGRIGHT
 10
0.0
 20
0.0
 30
0.0
  9
$PUCSORGFRONT
 10
0.0
 20
0.0
 30
0.0
  9
$PUCSORGBACK
 10
0.0
 20
0.0
 30
0.0
  9
$USERI1
 70
     0
  9
$USERI2
 70
     0
  9
$USERI3
 70
     0
  9
$USERI4
 70
     0
  9
$USERI5
 70
     0
  9
$USERR1
 40
0.0
  9
$USERR2
 40
0.0
  9
$USERR3
 40
0.0
  9
$USERR4
 40
0.0
  9
$USERR5
 40
0.0
  9
$WORLDVIEW
 70
     1
  9
$SHADEDGE
 70
     3
  9
$SHADEDIF
 70
    70
  9
$TILEMODE
 70
     1
  9
$MAXACTVP
 70
    48
  9
$PINSBASE
 10
0.0
 20
0.0
 30
0.0
  9
$PLIMCHECK
 70
     0
  9
$PEXTMIN
 10
0.0
 20
0.0
 30
0.0
  9
$PEXTMAX
 10
0.0
 20
0.0
 30
0.0
  9
$PLIMMIN
 10
0.0
 20
0.0
  9
$PLIMMAX
 10
12.0
 20
9.0
  9
$UNITMODE
 70
     0
  9
$VISRETAIN
 70
     1
  9
$PLINEGEN
 70
     0
  9
$PSLTSCALE
 70
     1
  9
$TREEDEPTH
 70
  3020
  9
$CMLSTYLE
  2
Standard
  9
$CMLJUST
 70
     0
  9
$CMLSCALE
 40
20.0
  9
$PROXYGRAPHICS
 70
     1
  9
$MEASUREMENT
 70
     1
  9
$CELWEIGHT
370
    -1
  9
$ENDCAPS
280
     0
  9
$JOINSTYLE
280
     0
  9
$LWDISPLAY
290
     0
  9
$INSUNITS
 70
     4
  9
$HYPERLINKBASE
  1

  9
$STYLESHEET
  1
monochrome.ctb
  9
$XEDIT
290
     1
  9
$CEPSNTYPE
380
     0
  9
$PSTYLEMODE
290
     1
  9
$FINGERPRINTGUID
  2

  9
$VERSIONGUID
  2
{C788B49F-D2BC-4BE4-8029-C77533E084DA}
  9
$EXTNAMES
290
     1
  9
$PSVPSCALE
 40
0.0
  9
$OLESTARTUP
290
     0
  0
ENDSEC
  0
SECTION
  2
CLASSES
  0
CLASS
  1
ACDBDICTIONARYWDFLT
  2
AcDbDictionaryWithDefault
  3
ObjectDBX Classes
 90
        0
280
     0
281
     0
  0
CLASS
  1
ACDBPLACEHOLDER
  2
AcDbPlaceHolder
  3
ObjectDBX Classes
 90
        0
280
     0
281
     0
  0
CLASS
  1
LAYOUT
  2
AcDbLayout
  3
ObjectDBX Classes
 90
        0
280
     0
281
     0
  0
CLASS
  1
DICTIONARYVAR
  2
AcDbDictionaryVar
  3
ObjectDBX Classes
 90
        0
280
     0
281
     0
  0
CLASS
  1
MATERIAL
  2
AcDbMaterial
  3
ObjectDBX Classes
 90
     1153
280
     0
281
     0
  0
CLASS
  1
VISUALSTYLE
  2
AcDbVisualStyle
  3
ObjectDBX Classes
 90
     4095
280
     0
281
     0
  0
CLASS
  1
TABLESTYLE
  2
AcDbTableStyle
  3
ObjectDBX Classes
 90
     4095
280
     0
281
     0
  0
CLASS
  1
SCALE
  2
AcDbScale
  3
ObjectDBX Classes
 90
     1153
280
     0
281
     0
  0
CLASS
  1
MLEADERSTYLE
  2
AcDbMLeaderStyle
  3
ACDB_MLEADERSTYLE_CLASS
 90
     4095
280
     0
281
     0
  0
CLASS
  1
ACDBSECTIONVIEWSTYLE
  2
AcDbSectionViewStyle
  3
ObjectDBX Classes
 90
     1025
280
     0
281
     0
  0
CLASS
  1
ACDBDETAILVIEWSTYLE
  2
AcDbDetailViewStyle
  3
ObjectDBX Classes
 90
     1025
280
     0
281
     0
  0
CLASS
  1
CELLSTYLEMAP
  2
AcDbCellStyleMap
  3
ObjectDBX Classes
 90
     1152
280
     0
281
     0
  0
CLASS
  1
SORTENTSTABLE
  2
AcDbSortentsTable
  3
ObjectDBX Classes
 90
        0
280
     0
281
     0
  0
CLASS
  1
ACARRAYJIGENTITY
  2
AcArrayJigEntity
  3
ACAD_ARRAY
 90
    32897
280
     0
281
     1
  0
CLASS
  1
ACDBASSOCNETWORK
  2
AcDbAssocNetwork
  3
ObjectDBX Classes
 90
     1025
280
     0
281
     0
  0
CLASS
  1
ACDBASSOCACTION
  2
AcDbAssocAction
  3
ObjectDBX Classes
 90
     1025
280
     0
281
     0
  0
CLASS
  1
ACDBASSOCARRAYACTIONBODY
  2
AcDbAssocArrayActionBody
  3
ObjectDBX Classes
 90
     1025
280
     0
281
     0
  0
CLASS
  1
ACDBASSOCVERTEXACTIONPARAM
  2
AcDbAssocVertexActionParam
  3
ObjectDBX Classes
 90
     1025
280
     0
281
     0
  0
CLASS
  1
ACDBASSOCDEPENDENCY
  2
AcDbAssocDependency
  3
ObjectDBX Classes
 90
     1025
280
     0
281
     0
  0
CLASS
  1
ACDBASSOCARRAYRECTANGULARPARAMETERS
  2
AcDbAssocArrayRectangularParameters
  3
ObjectDBX Classes
 90
    33793
280
     0
281
     0
  0
ENDSEC
  0
SECTION
  2
TABLES
  0
TABLE
  2
VPORT
  5
16C9
102
{ACAD_XDICTIONARY
360
1BE2
102
}
330
0
100
AcDbSymbolTable
 70
     1
  0
VPORT
  5
1B6A
330
16C9
100
AcDbSymbolTableRecord
100
AcDbViewportTableRecord
  2
*Active
 70
     0
 10
0.0
 20
0.0
 11
1.0
 21
1.0
 12
1394.755599997235
 22
986.6345700317872
 13
0.0
 23
0.0
 14
10.0
 24
10.0
 15
10.0
 25
10.0
 16
0.0
 26
0.0
 36
1.0
 17
0.0
 27
0.0
 37
0.0
 40
1992.48785424741
 41
3.006482982171799
 42
50.0
 43
0.0
 44
0.0
 50
0.0
 51
0.0
 71
     0
 72
   100
 73
     1
 74
     3
 75
     0
 76
     0
 77
     0
 78
     0
281
     0
 65
     1
110
0.0
120
0.0
130
0.0
111
1.0
121
0.0
131
0.0
112
0.0
122
1.0
132
0.0
 79
     0
146
0.0
1001
ACAD_NAV_VCDISPLAY
1070
     3
  0
ENDTAB
  0
TABLE
  2
LTYPE
  5
16C4
330
0
100
AcDbSymbolTable
 70
     3
  0
LTYPE
  5
16C5
330
16C4
100
AcDbSymbolTableRecord
100
AcDbLinetypeTableRecord
  2
ByBlock
 70
     0
  3

 72
    65
 73
     0
 40
0.0
  0
LTYPE
  5
16C6
330
16C4
100
AcDbSymbolTableRecord
100
AcDbLinetypeTableRecord
  2
ByLayer
 70
     0
  3

 72
    65
 73
     0
 40
0.0
  0
LTYPE
  5
8
330
16C4
100
AcDbSymbolTableRecord
100
AcDbLinetypeTableRecord
  2
Continuous
 70
     0
  3
Solid line
 72
    65
 73
     0
 40
0.0
  0
LTYPE
  5
F2
330
16C4
100
AcDbSymbolTableRecord
100
AcDbLinetypeTableRecord
  2
HIDDEN
 70
     0
  3
Hidden __ __ __ __ __ __ __ __ __ __ __ __ __ _
 72
    65
 73
     2
 40
9.524999999999998
 49
6.349999999999999
 74
     0
 49
-3.174999999999999
 74
     0
  0
LTYPE
  5
148
330
16C4
100
AcDbSymbolTableRecord
100
AcDbLinetypeTableRecord
  2
CENTER
 70
     0
  3
------ - ------ - ----
 72
    65
 73
     4
 40
10.0
 49
6.25
 74
     0
 49
-1.25
 74
     0
 49
1.25
 74
     0
 49
-1.25
 74
     0
  0
ENDTAB
  0
TABLE
  2
LAYER
  5
16C1
102
{ACAD_XDICTIONARY
360
1C38
102
}
330
0
100
AcDbSymbolTable
 70
    10
  0
LAYER
  5
76
102
{ACAD_XDICTIONARY
360
1BC1
102
}
330
16C1
100
AcDbSymbolTableRecord
100
AcDbLayerTableRecord
  2
0
 70
     0
 62
     7
  6
Continuous
370
    -3
390
5
  0
LAYER
  5
80
102
{ACAD_XDICTIONARY
360
1BC3
102
}
330
16C1
100
AcDbSymbolTableRecord
100
AcDbLayerTableRecord
  2
本体
 70
     0
 62
     7
  6
Continuous
370
    13
390
5
  0
LAYER
  5
4
102
{ACAD_XDICTIONARY
360
1BC5
102
}
330
16C1
100
AcDbSymbolTableRecord
100
AcDbLayerTableRecord
  2
寸法線
 70
     0
 62
     2
  6
Continuous
370
     9
390
5
  0
LAYER
  5
65C
102
{ACAD_XDICTIONARY
360
1BC9
102
}
330
16C1
100
AcDbSymbolTableRecord
100
AcDbLayerTableRecord
  2
エンボス
 70
     0
 62
     4
  6
Continuous
370
     5
390
5
  0
LAYER
  5
11
102
{ACAD_XDICTIONARY
360
1BCB
102
}
330
16C1
100
AcDbSymbolTableRecord
100
AcDbLayerTableRecord
  2
外枠
 70
     0
 62
     7
  6
Continuous
370
    -3
390
5
  0
LAYER
  5
CE
330
16C1
100
AcDbSymbolTableRecord
100
AcDbLayerTableRecord
  2
Defpoints
 70
     0
 62
     7
  6
Continuous
290
     0
370
    -3
390
5
  0
LAYER
  5
1ADF
102
{ACAD_XDICTIONARY
360
1BCF
102
}
330
16C1
100
AcDbSymbolTableRecord
100
AcDbLayerTableRecord
  2
中心線
 70
     0
 62
     1
  6
CENTER
370
     5
390
5
  0
LAYER
  5
1AE4
102
{ACAD_XDICTIONARY
360
1BD1
102
}
330
16C1
100
AcDbSymbolTableRecord
100
AcDbLayerTableRecord
  2
嵩上断面
 70
     0
 62
   112
  6
Continuous
370
    13
390
5
  0
LAYER
  5
1AE9
102
{ACAD_XDICTIONARY
360
1BD3
102
}
330
16C1
100
AcDbSymbolTableRecord
100
AcDbLayerTableRecord
  2
嵩上平面
 70
     0
 62
   112
  6
HIDDEN
370
    13
390
5
  0
LAYER
  5
1AEE
102
{ACAD_XDICTIONARY
360
1BD5
102
}
330
16C1
100
AcDbSymbolTableRecord
100
AcDbLayerTableRecord
  2
ゴム
 70
     0
 62
    51
  6
Continuous
370
    13
390
5
  0
ENDTAB
  0
TABLE
  2
STYLE
  5
16C2
330
0
100
AcDbSymbolTable
 70
     1
  0
STYLE
  5
9
330
16C2
100
AcDbSymbolTableRecord
100
AcDbTextStyleTableRecord
  2
Standard
 70
     0
 40
0.0
 41
1.0
 50
0.0
 71
     0
 42
2.5
  3

  4

1001
ACAD
1000
MS Gothic
1071
    32817
  0
ENDTAB
  0
TABLE
  2
VIEW
  5
16C7
330
0
100
AcDbSymbolTable
 70
     0
  0
ENDTAB
  0
TABLE
  2
UCS
  5
16C8
330
0
100
AcDbSymbolTable
 70
     0
  0
ENDTAB
  0
TABLE
  2
APPID
  5
16CB
330
0
100
AcDbSymbolTable
 70
     5
  0
APPID
  5
A
330
16CB
100
AcDbSymbolTableRecord
100
AcDbRegAppTableRecord
  2
ACAD
 70
     0
  0
APPID
  5
1BD7
330
16CB
100
AcDbSymbolTableRecord
100
AcDbRegAppTableRecord
  2
ACAD_NAV_VCDISPLAY
 70
     0
  0
APPID
  5
1C18
330
16CB
100
AcDbSymbolTableRecord
100
AcDbRegAppTableRecord
  2
ACAD_MLEADERVER
 70
     0
  0
APPID
  5
1C91
330
16CB
100
AcDbSymbolTableRecord
100
AcDbRegAppTableRecord
  2
ACAD_EXEMPT_FROM_CAD_STANDARDS
 70
     0
  0
APPID
  5
1E25
330
16CB
100
AcDbSymbolTableRecord
100
AcDbRegAppTableRecord
  2
AcLayerTools
 70
     0
  0
ENDTAB
  0
TABLE
  2
DIMSTYLE
  5
16CC
330
0
100
AcDbSymbolTable
 70
     2
100
AcDbDimStyleTable
 71
     1
340
BF
  0
DIMSTYLE
105
BF
102
{ACAD_REACTORS
330
BE
330
D3
330
E0
330
F8
330
107
330
114
330
123
330
130
330
371
330
575
102
}
330
16CC
100
AcDbSymbolTableRecord
100
AcDbDimStyleTableRecord
  2
ISO-25
 70
     0
 40
10.0
 41
1.5
 42
2.0
 43
3.75
 44
1.5
 73
     0
 74
     0
 77
     1
 78
     8
140
3.0
141
2.5
143
0.03937007874016
147
0.5
171
     3
172
     1
271
     2
272
     2
274
     3
283
     0
284
     8
289
     0
340
9
341
C0
342
C0
  0
DIMSTYLE
105
1ABD
330
16CC
100
AcDbSymbolTableRecord
100
AcDbDimStyleTableRecord
  2
Standard
 70
     0
340
9
  0
ENDTAB
  0
TABLE
  2
BLOCK_RECORD
  5
1
330
0
100
AcDbSymbolTable
 70
    22
  0
BLOCK_RECORD
  5
2
102
{ACAD_XDICTIONARY
360
16AF
102
}
330
1
100
AcDbSymbolTableRecord
100
AcDbBlockTableRecord
  2
*Model_Space
340
16B3
  0
BLOCK_RECORD
  5
16B5
102
{ACAD_XDICTIONARY
360
16B6
102
}
330
1
100
AcDbSymbolTableRecord
100
AcDbBlockTableRecord
  2
*Paper_Space
340
16BA
  0
BLOCK_RECORD
  5
16BB
102
{ACAD_XDICTIONARY
360
16BC
102
}
330
1
100
AcDbSymbolTableRecord
100
AcDbBlockTableRecord
  2
*Paper_Space0
340
16C0
  0
BLOCK_RECORD
  5
C0
330
1
100
AcDbSymbolTableRecord
100
AcDbBlockTableRecord
  2
_Open30
340
0
102
{BLKREFS
331
2018
331
2019
331
1CAF
331
1CB0
331
1CBA
331
1CBB
331
1CC4
331
1CC5
331
1CCD
331
1CCE
331
1CD6
331
1CD7
331
1CE1
331
1CE2
331
1CEC
331
1CED
331
1D4D
331
1D4E
331
1D56
331
1D57
331
1D5F
331
1D60
102
}
  0
BLOCK_RECORD
  5
169D
330
1
100
AcDbSymbolTableRecord
100
AcDbBlockTableRecord
  2
平ゴムパッキン
340
0
102
{BLKREFS
331
169C
331
16AE
102
}
  0
BLOCK_RECORD
  5
C6
330
1
100
AcDbSymbolTableRecord
100
AcDbBlockTableRecord
  2
*D3
340
0
  0
BLOCK_RECORD
  5
D4
330
1
100
AcDbSymbolTableRecord
100
AcDbBlockTableRecord
  2
*D4
340
0
  0
BLOCK_RECORD
  5
E1
330
1
100
AcDbSymbolTableRecord
100
AcDbBlockTableRecord
  2
*D5
340
0
  0
BLOCK_RECORD
  5
F9
330
1
100
AcDbSymbolTableRecord
100
AcDbBlockTableRecord
  2
*D6
340
0
  0
BLOCK_RECORD
  5
108
330
1
100
AcDbSymbolTableRecord
100
AcDbBlockTableRecord
  2
*D7
340
0
  0
BLOCK_RECORD
  5
115
330
1
100
AcDbSymbolTableRecord
100
AcDbBlockTableRecord
  2
*D8
340
0
  0
BLOCK_RECORD
  5
124
330
1
100
AcDbSymbolTableRecord
100
AcDbBlockTableRecord
  2
*D9
340
0
  0
BLOCK_RECORD
  5
131
330
1
100
AcDbSymbolTableRecord
100
AcDbBlockTableRecord
  2
*D10
340
0
  0
BLOCK_RECORD
  5
372
330
1
100
AcDbSymbolTableRecord
100
AcDbBlockTableRecord
  2
*D11
340
0
  0
BLOCK_RECORD
  5
576
330
1
100
AcDbSymbolTableRecord
100
AcDbBlockTableRecord
  2
*D12
340
0
  0
BLOCK_RECORD
  5
1ABE
330
1
100
AcDbSymbolTableRecord
100
AcDbBlockTableRecord
  2
P-H70
340
0
102
{BLKREFS
331
1ACC
331
1ACD
102
}
  0
BLOCK_RECORD
  5
1C31
102
{ACAD_XDICTIONARY
360
1C32
102
}
330
1
100
AcDbSymbolTableRecord
100
AcDbBlockTableRecord
  2
鎌下
340
0
102
{BLKREFS
331
1C43
102
}
1001
ACAD
1000
DesignCenter Data
1002
{
1070
     1
1070
     4
1002
}
  0
BLOCK_RECORD
  5
1E0A
102
{ACAD_XDICTIONARY
360
1E15
102
}
330
1
100
AcDbSymbolTableRecord
100
AcDbBlockTableRecord
  2
GFB新
340
0
102
{BLKREFS
331
1E18
102
}
1001
ACAD
1000
DesignCenter Data
1002
{
1070
     1
1070
     4
1002
}
  0
BLOCK_RECORD
  5
1E27
102
{ACAD_REACTORS
330
1E3D
102
}
330
1
100
AcDbSymbolTableRecord
100
AcDbBlockTableRecord
  2
*U16
340
0
102
{BLKREFS
331
1E41
331
1E42
331
1E43
331
1E44
331
1E45
331
1E46
331
1E47
331
1E48
331
1E49
331
1E4A
331
1E4B
331
1E4C
331
1E4D
331
1E4E
331
1E4F
331
1E50
331
1E51
331
1E52
331
1E53
331
1E54
331
1E55
331
1E56
331
1E57
331
1E58
331
1E59
331
1E5A
331
1E5B
331
1E5C
331
1E5D
331
1E5E
331
1E5F
331
1E60
331
1E61
331
1E62
331
1E63
331
1E64
331
1E65
331
1E66
331
1E67
331
1E68
331
1E69
331
1E6A
331
1E6B
331
1E6C
331
1E6D
331
1E6E
331
1E6F
331
1E70
331
1E71
331
1E72
331
1E73
331
1E74
331
1E75
331
1E76
331
1E77
331
1E78
331
1E79
331
1E7A
331
1E7B
331
1E7C
331
1E7D
331
1E7E
331
1E7F
331
1E80
331
1E81
331
1E82
331
1E83
331
1E84
331
1E85
331
1E86
331
1E87
331
1E88
331
1E89
331
1E8A
331
1E8B
331
1E8C
331
1E8D
331
1E8E
102
}
  0
BLOCK_RECORD
  5
1E2A
102
{ACAD_XDICTIONARY
360
2005
102
}
102
{ACAD_REACTORS
330
1E3C
102
}
330
1
100
AcDbSymbolTableRecord
100
AcDbBlockTableRecord
  2
*U17
340
0
102
{BLKREFS
331
1E2D
102
}
  0
BLOCK_RECORD
  5
1F12
102
{ACAD_REACTORS
330
1F61
102
}
330
1
100
AcDbSymbolTableRecord
100
AcDbBlockTableRecord
  2
*U18
340
0
102
{BLKREFS
331
1F65
331
1F66
331
1F67
331
1F68
331
1F69
331
1F6A
331
1F6B
331
1F6C
331
1F6D
331
1F6E
331
1F6F
331
1F70
331
1F71
331
1F72
331
1F73
331
1F74
331
1F75
331
1F76
331
1F77
331
1F78
331
1F79
331
1F7A
331
1F7B
331
1F7C
331
1F7D
331
1F7E
331
1F7F
331
1F80
331
1F81
331
1F82
331
1F83
331
1F84
331
1F85
331
1F86
331
1F87
331
1F88
331
1F89
331
1F8A
331
1F8B
331
1F8C
331
1F8D
331
1F8E
331
1F8F
331
1F90
331
1F91
331
1F92
331
1F93
331
1F94
331
1F95
331
1F96
331
1F97
331
1F98
331
1F99
331
1F9A
331
1F9B
331
1F9C
331
1F9D
331
1F9E
331
1F9F
331
1FA0
331
1FA1
331
1FA2
331
1FA3
331
1FA4
331
1FA5
331
1FA6
331
1FA7
331
1FA8
331
1FA9
331
1FAA
331
1FAB
331
1FAC
331
1FAD
331
1FAE
331
1FAF
331
1FB0
331
1FB1
331
1FB2
102
}
  0
BLOCK_RECORD
  5
1F15
102
{ACAD_XDICTIONARY
360
2008
102
}
102
{ACAD_REACTORS
330
1F60
102
}
330
1
100
AcDbSymbolTableRecord
100
AcDbBlockTableRecord
  2
*U19
340
0
102
{BLKREFS
331
1F18
102
}
  0
BLOCK_RECORD
  5
2011
330
1
100
AcDbSymbolTableRecord
100
AcDbBlockTableRecord
  2
*D20
340
0
  0
BLOCK_RECORD
  5
201F
102
{ACAD_XDICTIONARY
360
2021
102
}
330
1
100
AcDbSymbolTableRecord
100
AcDbBlockTableRecord
  2
A$C33A24C28
340
0
1001
ACAD
1000
DesignCenter Data
1002
{
1070
     1
1070
     4
1002
}
  0
ENDTAB
  0
ENDSEC
  0
SECTION
  2
BLOCKS
  0
BLOCK
  5
16B1
330
2
100
AcDbEntity
  8
0
100
AcDbBlockBegin
  2
*Model_Space
 70
     0
 10
0.0
 20
0.0
 30
0.0
  3
*Model_Space
  1

  0
ENDBLK
  5
16B2
330
2
100
AcDbEntity
  8
0
100
AcDbBlockEnd
  0
BLOCK
  5
16B8
330
16B5
100
AcDbEntity
 67
     1
  8
0
100
AcDbBlockBegin
  2
*Paper_Space
 70
     0
 10
0.0
 20
0.0
 30
0.0
  3
*Paper_Space
  1

  0
ENDBLK
  5
16B9
330
16B5
100
AcDbEntity
 67
     1
  8
0
100
AcDbBlockEnd
  0
BLOCK
  5
16BE
330
16BB
100
AcDbEntity
 67
     1
  8
0
100
AcDbBlockBegin
  2
*Paper_Space0
 70
     0
 10
0.0
 20
0.0
 30
0.0
  3
*Paper_Space0
  1

  0
ENDBLK
  5
16BF
330
16BB
100
AcDbEntity
 67
     1
  8
0
100
AcDbBlockEnd
  0
BLOCK
  5
C4
330
C0
100
AcDbEntity
  8
0
100
AcDbBlockBegin
  2
_Open30
 70
     0
 10
0.0
 20
0.0
 30
0.0
  3
_Open30
  1

  0
LINE
  5
C1
330
C0
100
AcDbEntity
  8
0
  6
ByBlock
 62
     0
370
    -2
100
AcDbLine
 10
-1.0
 20
0.26794919
 30
0.0
 11
0.0
 21
0.0
 31
0.0
  0
LINE
  5
C2
330
C0
100
AcDbEntity
  8
0
  6
ByBlock
 62
     0
370
    -2
100
AcDbLine
 10
0.0
 20
0.0
 30
0.0
 11
-1.0
 21
-0.26794919
 31
0.0
  0
LINE
  5
C3
330
C0
100
AcDbEntity
  8
0
  6
ByBlock
 62
     0
370
    -2
100
AcDbLine
 10
0.0
 20
0.0
 30
0.0
 11
-1.0
 21
0.0
 31
0.0
  0
ENDBLK
  5
C5
330
C0
100
AcDbEntity
  8
0
100
AcDbBlockEnd
  0
BLOCK
  5
16AC
330
169D
100
AcDbEntity
  8
0
100
AcDbBlockBegin
  2
平ゴムパッキン
 70
     0
 10
0.0
 20
0.0
 30
0.0
  3
平ゴムパッキン
  1

  0
LINE
  5
169E
330
169D
100
AcDbEntity
  8
0
100
AcDbLine
 10
3.000005000000001
 20
-0.0000109999999998
 30
0.0
 11
3.000005000000001
 21
-40.000011
 31
0.0
  0
LINE
  5
169F
330
169D
100
AcDbEntity
  8
0
100
AcDbLine
 10
3.000005000000001
 20
-0.0000109999999998
 30
0.0
 11
8.000005000000001
 21
-0.0000109999999998
 31
0.0
  0
LINE
  5
16A0
330
169D
100
AcDbEntity
  8
0
100
AcDbLine
 10
3.000005000000001
 20
-40.000011
 30
0.0
 11
8.000005000000001
 21
-40.000011
 31
0.0
  0
LINE
  5
16A1
330
169D
100
AcDbEntity
  8
0
100
AcDbLine
 10
8.000005000000001
 20
-0.0000109999999998
 30
0.0
 11
8.000005000000001
 21
-10.000011
 31
0.0
  0
LINE
  5
16A2
330
169D
100
AcDbEntity
  8
0
100
AcDbLine
 10
8.000005000000001
 20
-30.000011
 30
0.0
 11
8.000005000000001
 21
-40.000011
 31
0.0
  0
LINE
  5
16A3
330
169D
100
AcDbEntity
  8
0
100
AcDbLine
 10
8.000005000000001
 20
-10.000011
 30
0.0
 11
8.000005000000001
 21
-30.000011
 31
0.0
  0
LINE
  5
16A4
330
169D
100
AcDbEntity
  8
0
 62
     1
100
AcDbLine
 10
5.874546000000002
 20
-40.000011
 30
0.0
 11
8.000005000000001
 21
-36.318608
 31
0.0
  0
LINE
  5
16A5
330
169D
100
AcDbEntity
  8
0
 62
     1
100
AcDbLine
 10
3.000005000000001
 20
-38.978862
 30
0.0
 11
8.000005000000001
 21
-30.318608
 31
0.0
  0
LINE
  5
16A6
330
169D
100
AcDbEntity
  8
0
 62
     1
100
AcDbLine
 10
3.000005000000001
 20
-32.978862
 30
0.0
 11
8.000005000000001
 21
-24.31860866666666
 31
0.0
  0
LINE
  5
16A7
330
169D
100
AcDbEntity
  8
0
 62
     1
100
AcDbLine
 10
3.000005000000001
 20
-26.978862
 30
0.0
 11
8.000005000000001
 21
-18.31860866666667
 31
0.0
  0
LINE
  5
16A8
330
169D
100
AcDbEntity
  8
0
 62
     1
100
AcDbLine
 10
3.000005000000001
 20
-20.978862
 30
0.0
 11
8.000005000000001
 21
-12.31860866666666
 31
0.0
  0
LINE
  5
16A9
330
169D
100
AcDbEntity
  8
0
 62
     1
100
AcDbLine
 10
3.000005000000001
 20
-14.978862
 30
0.0
 11
8.000005000000001
 21
-6.318608000000001
 31
0.0
  0
LINE
  5
16AA
330
169D
100
AcDbEntity
  8
0
 62
     1
100
AcDbLine
 10
3.000005000000001
 20
-8.978861999999999
 30
0.0
 11
8.000005000000001
 21
-0.3186080000000002
 31
0.0
  0
LINE
  5
16AB
330
169D
100
AcDbEntity
  8
0
 62
     1
100
AcDbLine
 10
3.000005000000001
 20
-2.978861999999999
 30
0.0
 11
4.719844999999999
 21
-0.0000109999999998
 31
0.0
  0
ENDBLK
  5
16AD
330
169D
100
AcDbEntity
  8
0
100
AcDbBlockEnd
  0
BLOCK
  5
D1
330
C6
100
AcDbEntity
  8
0
 48
3.0
100
AcDbBlockBegin
  2
*D3
 70
     1
 10
0.0
 20
0.0
 30
0.0
  3
*D3
  1

  0
LINE
  5
1D4A
330
C6
100
AcDbEntity
  8
寸法線
  6
Continuous
 62
     0
370
    -2
100
AcDbLine
 10
1917.251253091263
 20
1633.657346744574
 30
0.0
 11
1762.251253091264
 21
1633.657346744574
 31
0.0
  0
LINE
  5
1D4B
330
C6
100
AcDbEntity
  8
寸法線
  6
Continuous
 62
     0
370
    -2
100
AcDbLine
 10
1917.251253091263
 20
1203.657346744574
 30
0.0
 11
1762.251253091263
 21
1203.657346744574
 31
0.0
  0
LINE
  5
1D4C
330
C6
100
AcDbEntity
  8
寸法線
  6
Continuous
 62
     0
370
    -2
100
AcDbLine
 10
1777.251253091264
 20
1618.657346744574
 30
0.0
 11
1777.251253091263
 21
1218.657346744574
 31
0.0
  0
INSERT
  5
1D4D
330
C6
100
AcDbEntity
  8
寸法線
  6
Continuous
 62
     0
370
    -2
100
AcDbBlockReference
  2
_Open30
 10
1777.251253091264
 20
1633.657346744574
 30
0.0
 41
15.0
 42
15.0
 43
15.0
 50
90.0
  0
INSERT
  5
1D4E
330
C6
100
AcDbEntity
  8
寸法線
  6
Continuous
 62
     0
370
    -2
100
AcDbBlockReference
  2
_Open30
 10
1777.251253091263
 20
1203.657346744574
 30
0.0
 41
15.0
 42
15.0
 43
15.0
 50
270.0
  0
MTEXT
  5
1D4F
330
C6
100
AcDbEntity
  8
寸法線
  6
Continuous
 62
     0
100
AcDbMText
 10
1757.251253091263
 20
1418.657346744575
 30
0.0
 40
30.0
 41
0.0
 71
     5
 72
     1
  1
430
 11
0.0000000000000001
 21
1.0
 31
0.0
 73
     1
 44
1.0
1001
ACAD
1000
MTEXTBEGIN
1070
    73
1070
     1
1070
    44
1040
1.0
1070
    74
1070
     0
1000
MTEXTEND
  0
POINT
  5
1D50
330
C6
100
AcDbEntity
  8
Defpoints
  6
Continuous
 62
     0
100
AcDbPoint
 10
1937.251253091264
 20
1633.657346744574
 30
0.0
  0
POINT
  5
1D51
330
C6
100
AcDbEntity
  8
Defpoints
  6
Continuous
 62
     0
100
AcDbPoint
 10
1937.251253091264
 20
1203.657346744574
 30
0.0
  0
POINT
  5
1D52
330
C6
100
AcDbEntity
  8
Defpoints
  6
Continuous
 62
     0
100
AcDbPoint
 10
1777.251253091263
 20
1203.657346744574
 30
0.0
  0
ENDBLK
  5
D2
330
C6
100
AcDbEntity
  8
0
 48
3.0
100
AcDbBlockEnd
  0
BLOCK
  5
DE
330
D4
100
AcDbEntity
  8
0
 48
3.0
100
AcDbBlockBegin
  2
*D4
 70
     1
 10
0.0
 20
0.0
 30
0.0
  3
*D4
  1

  0
LINE
  5
1D53
330
D4
100
AcDbEntity
  8
寸法線
  6
Continuous
 62
     0
370
    -2
100
AcDbLine
 10
1914.251253091263
 20
1568.657346744574
 30
0.0
 11
1842.251253091264
 21
1568.657346744574
 31
0.0
  0
LINE
  5
1D54
330
D4
100
AcDbEntity
  8
寸法線
  6
Continuous
 62
     0
370
    -2
100
AcDbLine
 10
1914.251253091263
 20
1468.657346744574
 30
0.0
 11
1842.251253091264
 21
1468.657346744574
 31
0.0
  0
LINE
  5
1D55
330
D4
100
AcDbEntity
  8
寸法線
  6
Continuous
 62
     0
370
    -2
100
AcDbLine
 10
1857.251253091264
 20
1553.657346744574
 30
0.0
 11
1857.251253091263
 21
1483.657346744574
 31
0.0
  0
INSERT
  5
1D56
330
D4
100
AcDbEntity
  8
寸法線
  6
Continuous
 62
     0
370
    -2
100
AcDbBlockReference
  2
_Open30
 10
1857.251253091264
 20
1568.657346744574
 30
0.0
 41
15.0
 42
15.0
 43
15.0
 50
90.0
  0
INSERT
  5
1D57
330
D4
100
AcDbEntity
  8
寸法線
  6
Continuous
 62
     0
370
    -2
100
AcDbBlockReference
  2
_Open30
 10
1857.251253091263
 20
1468.657346744574
 30
0.0
 41
15.0
 42
15.0
 43
15.0
 50
270.0
  0
MTEXT
  5
1D58
330
D4
100
AcDbEntity
  8
寸法線
  6
Continuous
 62
     0
100
AcDbMText
 10
1837.251253091263
 20
1518.657346744575
 30
0.0
 40
30.0
 41
0.0
 71
     5
 72
     1
  1
100
 11
0.0000000000000001
 21
1.0
 31
0.0
 73
     1
 44
1.0
1001
ACAD
1000
MTEXTBEGIN
1070
    73
1070
     1
1070
    44
1040
1.0
1070
    74
1070
     0
1000
MTEXTEND
  0
POINT
  5
1D59
330
D4
100
AcDbEntity
  8
Defpoints
  6
Continuous
 62
     0
100
AcDbPoint
 10
1934.251253091263
 20
1568.657346744574
 30
0.0
  0
POINT
  5
1D5A
330
D4
100
AcDbEntity
  8
Defpoints
  6
Continuous
 62
     0
100
AcDbPoint
 10
1934.251253091263
 20
1468.657346744574
 30
0.0
  0
POINT
  5
1D5B
330
D4
100
AcDbEntity
  8
Defpoints
  6
Continuous
 62
     0
100
AcDbPoint
 10
1857.251253091263
 20
1468.657346744574
 30
0.0
  0
ENDBLK
  5
DF
330
D4
100
AcDbEntity
  8
0
 48
3.0
100
AcDbBlockEnd
  0
BLOCK
  5
EB
330
E1
100
AcDbEntity
  8
0
 48
3.0
100
AcDbBlockBegin
  2
*D5
 70
     1
 10
0.0
 20
0.0
 30
0.0
  3
*D5
  1

  0
LINE
  5
1D5C
330
E1
100
AcDbEntity
  8
寸法線
  6
Continuous
 62
     0
370
    -2
100
AcDbLine
 10
2049.251250091264
 20
1623.657347744574
 30
0.0
 11
2132.251255091263
 21
1623.657347744574
 31
0.0
  0
LINE
  5
1D5D
330
E1
100
AcDbEntity
  8
寸法線
  6
Continuous
 62
     0
370
    -2
100
AcDbLine
 10
2049.251250091264
 20
1213.657345744574
 30
0.0
 11
2132.251255091263
 21
1213.657345744574
 31
0.0
  0
LINE
  5
1D5E
330
E1
100
AcDbEntity
  8
寸法線
  6
Continuous
 62
     0
370
    -2
100
AcDbLine
 10
2117.251255091264
 20
1608.657347744574
 30
0.0
 11
2117.251255091264
 21
1228.657345744574
 31
0.0
  0
INSERT
  5
1D5F
330
E1
100
AcDbEntity
  8
寸法線
  6
Continuous
 62
     0
370
    -2
100
AcDbBlockReference
  2
_Open30
 10
2117.251255091264
 20
1623.657347744574
 30
0.0
 41
15.0
 42
15.0
 43
15.0
 50
90.0
  0
INSERT
  5
1D60
330
E1
100
AcDbEntity
  8
寸法線
  6
Continuous
 62
     0
370
    -2
100
AcDbBlockReference
  2
_Open30
 10
2117.251255091264
 20
1213.657345744574
 30
0.0
 41
15.0
 42
15.0
 43
15.0
 50
270.0
  0
MTEXT
  5
1D61
330
E1
100
AcDbEntity
  8
寸法線
  6
Continuous
 62
     0
100
AcDbMText
 10
2097.251255091263
 20
1418.657346744575
 30
0.0
 40
30.0
 41
0.0
 71
     5
 72
     1
  1
410
 11
0.0000000000000001
 21
1.0
 31
0.0
 73
     1
 44
1.0
1001
ACAD
1000
MTEXTBEGIN
1070
    73
1070
     1
1070
    44
1040
1.0
1070
    74
1070
     0
1000
MTEXTEND
  0
POINT
  5
1D62
330
E1
100
AcDbEntity
  8
Defpoints
  6
Continuous
 62
     0
100
AcDbPoint
 10
2029.251250091264
 20
1623.657347744574
 30
0.0
  0
POINT
  5
1D63
330
E1
100
AcDbEntity
  8
Defpoints
  6
Continuous
 62
     0
100
AcDbPoint
 10
2029.251250091264
 20
1213.657345744574
 30
0.0
  0
POINT
  5
1D64
330
E1
100
AcDbEntity
  8
Defpoints
  6
Continuous
 62
     0
100
AcDbPoint
 10
2117.251255091264
 20
1213.657345744574
 30
0.0
  0
ENDBLK
  5
EC
330
E1
100
AcDbEntity
  8
0
 48
3.0
100
AcDbBlockEnd
  0
BLOCK
  5
105
330
F9
100
AcDbEntity
  8
0
 48
3.0
100
AcDbBlockBegin
  2
*D6
 70
     1
 10
0.0
 20
0.0
 30
0.0
  3
*D6
  1

  0
LINE
  5
1CB5
330
F9
100
AcDbEntity
  8
寸法線
  6
Continuous
 62
     0
370
    -2
100
AcDbLine
 10
1184.017458784496
 20
704.666529050138
 30
0.0
 11
1184.017458784496
 21
779.666529050138
 31
0.0
  0
LINE
  5
1CB6
330
F9
100
AcDbEntity
  8
寸法線
  6
Continuous
 62
     0
370
    -2
100
AcDbLine
 10
1196.549104384496
 20
704.666529050138
 30
0.0
 11
1196.549104384496
 21
779.666529050138
 31
0.0
  0
LINE
  5
1CB7
330
F9
100
AcDbEntity
  8
寸法線
  6
Continuous
 62
     0
370
    -2
100
AcDbLine
 10
1169.017458784496
 20
764.666529050138
 30
0.0
 11
1154.017458784496
 21
764.666529050138
 31
0.0
  0
LINE
  5
1CB8
330
F9
100
AcDbEntity
  8
寸法線
  6
Continuous
 62
     0
370
    -2
100
AcDbLine
 10
1211.549104384496
 20
764.666529050138
 30
0.0
 11
1308.427276973329
 21
764.666529050138
 31
0.0
  0
LINE
  5
1CB9
330
F9
100
AcDbEntity
  8
寸法線
  6
Continuous
 62
     0
370
    -2
100
AcDbLine
 10
1184.017458784496
 20
764.666529050138
 30
0.0
 11
1196.549104384496
 21
764.666529050138
 31
0.0
  0
INSERT
  5
1CBA
330
F9
100
AcDbEntity
  8
寸法線
  6
Continuous
 62
     0
370
    -2
100
AcDbBlockReference
  2
_Open30
 10
1184.017458784496
 20
764.666529050138
 30
0.0
 41
15.0
 42
15.0
 43
15.0
  0
INSERT
  5
1CBB
330
F9
100
AcDbEntity
  8
寸法線
  6
Continuous
 62
     0
370
    -2
100
AcDbBlockReference
  2
_Open30
 10
1196.549104384496
 20
764.666529050138
 30
0.0
 41
15.0
 42
15.0
 43
15.0
 50
180.0
  0
MTEXT
  5
1CBC
330
F9
100
AcDbEntity
  8
寸法線
  6
Continuous
 62
     0
100
AcDbMText
 10
1267.488190678913
 20
784.666529050138
 30
0.0
 40
30.0
 41
0.0
 71
     5
 72
     1
  1
12.5
 73
     1
 44
1.0
1001
ACAD
1000
MTEXTBEGIN
1070
    73
1070
     1
1070
    44
1040
1.0
1070
    74
1070
     0
1000
MTEXTEND
  0
POINT
  5
1CBD
330
F9
100
AcDbEntity
  8
Defpoints
  6
Continuous
 62
     0
100
AcDbPoint
 10
1184.017458784496
 20
684.666529050138
 30
0.0
  0
POINT
  5
1CBE
330
F9
100
AcDbEntity
  8
Defpoints
  6
Continuous
 62
     0
100
AcDbPoint
 10
1196.549104384496
 20
684.666529050138
 30
0.0
  0
POINT
  5
1CBF
330
F9
100
AcDbEntity
  8
Defpoints
  6
Continuous
 62
     0
100
AcDbPoint
 10
1196.549104384496
 20
764.666529050138
 30
0.0
  0
ENDBLK
  5
106
330
F9
100
AcDbEntity
  8
0
 48
3.0
100
AcDbBlockEnd
  0
BLOCK
  5
112
330
108
100
AcDbEntity
  8
0
 48
3.0
100
AcDbBlockBegin
  2
*D7
 70
     1
 10
0.0
 20
0.0
 30
0.0
  3
*D7
  1

  0
LINE
  5
1CC1
330
108
100
AcDbEntity
  8
寸法線
  6
Continuous
 62
     0
370
    -2
100
AcDbLine
 10
368.8149287844972
 20
564.666529050138
 30
0.0
 11
368.8149287844972
 21
489.666529050138
 31
0.0
  0
LINE
  5
1CC2
330
108
100
AcDbEntity
  8
寸法線
  6
Continuous
 62
     0
370
    -2
100
AcDbLine
 10
1358.814928784497
 20
564.666529050138
 30
0.0
 11
1358.814928784497
 21
489.666529050138
 31
0.0
  0
LINE
  5
1CC3
330
108
100
AcDbEntity
  8
寸法線
  6
Continuous
 62
     0
370
    -2
100
AcDbLine
 10
383.8149287844972
 20
504.666529050138
 30
0.0
 11
1343.814928784497
 21
504.666529050138
 31
0.0
  0
INSERT
  5
1CC4
330
108
100
AcDbEntity
  8
寸法線
  6
Continuous
 62
     0
370
    -2
100
AcDbBlockReference
  2
_Open30
 10
368.8149287844972
 20
504.666529050138
 30
0.0
 41
15.0
 42
15.0
 43
15.0
 50
180.0
  0
INSERT
  5
1CC5
330
108
100
AcDbEntity
  8
寸法線
  6
Continuous
 62
     0
370
    -2
100
AcDbBlockReference
  2
_Open30
 10
1358.814928784497
 20
504.666529050138
 30
0.0
 41
15.0
 42
15.0
 43
15.0
  0
MTEXT
  5
1CC6
330
108
100
AcDbEntity
  8
寸法線
  6
Continuous
 62
     0
100
AcDbMText
 10
863.8149287844971
 20
524.666529050138
 30
0.0
 40
30.0
 41
0.0
 71
     5
 72
     1
  1
990
 73
     1
 44
1.0
1001
ACAD
1000
MTEXTBEGIN
1070
    73
1070
     1
1070
    44
1040
1.0
1070
    74
1070
     0
1000
MTEXTEND
  0
POINT
  5
1CC7
330
108
100
AcDbEntity
  8
Defpoints
  6
Continuous
 62
     0
100
AcDbPoint
 10
368.8149287844972
 20
584.666529050138
 30
0.0
  0
POINT
  5
1CC8
330
108
100
AcDbEntity
  8
Defpoints
  6
Continuous
 62
     0
100
AcDbPoint
 10
1358.814928784497
 20
584.666529050138
 30
0.0
  0
POINT
  5
1CC9
330
108
100
AcDbEntity
  8
Defpoints
  6
Continuous
 62
     0
100
AcDbPoint
 10
1358.814928784497
 20
504.666529050138
 30
0.0
  0
ENDBLK
  5
113
330
108
100
AcDbEntity
  8
0
 48
3.0
100
AcDbBlockEnd
  0
BLOCK
  5
121
330
115
100
AcDbEntity
  8
0
 48
3.0
100
AcDbBlockBegin
  2
*D8
 70
     1
 10
0.0
 20
0.0
 30
0.0
  3
*D8
  1

  0
LINE
  5
1CE7
330
115
100
AcDbEntity
  8
寸法線
  6
Continuous
 62
     0
370
    -2
100
AcDbLine
 10
1378.814928784497
 20
659.666529050138
 30
0.0
 11
1486.314926784496
 21
659.666529050138
 31
0.0
  0
LINE
  5
1CE8
330
115
100
AcDbEntity
  8
寸法線
  6
Continuous
 62
     0
370
    -2
100
AcDbLine
 10
1378.814931184497
 20
684.666529050138
 30
0.0
 11
1486.314926784496
 21
684.666529050138
 31
0.0
  0
LINE
  5
1CE9
330
115
100
AcDbEntity
  8
寸法線
  6
Continuous
 62
     0
370
    -2
100
AcDbLine
 10
1471.314926784496
 20
644.666529050138
 30
0.0
 11
1471.314926784496
 21
629.666529050138
 31
0.0
  0
LINE
  5
1CEA
330
115
100
AcDbEntity
  8
寸法線
  6
Continuous
 62
     0
370
    -2
100
AcDbLine
 10
1471.314926784496
 20
699.666529050138
 30
0.0
 11
1471.314926784496
 21
759.5396254968385
 31
0.0
  0
LINE
  5
1CEB
330
115
100
AcDbEntity
  8
寸法線
  6
Continuous
 62
     0
370
    -2
100
AcDbLine
 10
1471.314926784496
 20
659.666529050138
 30
0.0
 11
1471.314926784496
 21
684.666529050138
 31
0.0
  0
INSERT
  5
1CEC
330
115
100
AcDbEntity
  8
寸法線
  6
Continuous
 62
     0
370
    -2
100
AcDbBlockReference
  2
_Open30
 10
1471.314926784496
 20
659.666529050138
 30
0.0
 41
15.0
 42
15.0
 43
15.0
 50
90.0
  0
INSERT
  5
1CED
330
115
100
AcDbEntity
  8
寸法線
  6
Continuous
 62
     0
370
    -2
100
AcDbBlockReference
  2
_Open30
 10
1471.314926784496
 20
684.666529050138
 30
0.0
 41
15.0
 42
15.0
 43
15.0
 50
270.0
  0
MTEXT
  5
1CEE
330
115
100
AcDbEntity
  8
寸法線
  6
Continuous
 62
     0
100
AcDbMText
 10
1451.314926784496
 20
737.1030772734884
 30
0.0
 40
30.0
 41
0.0
 71
     5
 72
     1
  1
25
 11
0.0000000000000001
 21
1.0
 31
0.0
 73
     1
 44
1.0
1001
ACAD
1000
MTEXTBEGIN
1070
    73
1070
     1
1070
    44
1040
1.0
1070
    74
1070
     0
1000
MTEXTEND
  0
POINT
  5
1CEF
330
115
100
AcDbEntity
  8
Defpoints
  6
Continuous
 62
     0
100
AcDbPoint
 10
1358.814928784497
 20
659.666529050138
 30
0.0
  0
POINT
  5
1CF0
330
115
100
AcDbEntity
  8
Defpoints
  6
Continuous
 62
     0
100
AcDbPoint
 10
1358.814931184497
 20
684.666529050138
 30
0.0
  0
POINT
  5
1CF1
330
115
100
AcDbEntity
  8
Defpoints
  6
Continuous
 62
     0
100
AcDbPoint
 10
1471.314926784496
 20
684.666529050138
 30
0.0
  0
ENDBLK
  5
122
330
115
100
AcDbEntity
  8
0
 48
3.0
100
AcDbBlockEnd
  0
BLOCK
  5
12E
330
124
100
AcDbEntity
  8
0
 48
3.0
100
AcDbBlockBegin
  2
*D9
 70
     1
 10
0.0
 20
0.0
 30
0.0
  3
*D9
  1

  0
LINE
  5
1CD3
330
124
100
AcDbEntity
  8
寸法線
  6
Continuous
 62
     0
370
    -2
100
AcDbLine
 10
1378.814928784497
 20
659.666529050138
 30
0.0
 11
1486.314926784496
 21
659.666529050138
 31
0.0
  0
LINE
  5
1CD4
330
124
100
AcDbEntity
  8
寸法線
  6
Continuous
 62
     0
370
    -2
100
AcDbLine
 10
1378.814928784497
 20
589.666529050138
 30
0.0
 11
1486.314926784496
 21
589.666529050138
 31
0.0
  0
LINE
  5
1CD5
330
124
100
AcDbEntity
  8
寸法線
  6
Continuous
 62
     0
370
    -2
100
AcDbLine
 10
1471.314926784496
 20
644.666529050138
 30
0.0
 11
1471.314926784496
 21
604.666529050138
 31
0.0
  0
INSERT
  5
1CD6
330
124
100
AcDbEntity
  8
寸法線
  6
Continuous
 62
     0
370
    -2
100
AcDbBlockReference
  2
_Open30
 10
1471.314926784496
 20
659.666529050138
 30
0.0
 41
15.0
 42
15.0
 43
15.0
 50
90.0
  0
INSERT
  5
1CD7
330
124
100
AcDbEntity
  8
寸法線
  6
Continuous
 62
     0
370
    -2
100
AcDbBlockReference
  2
_Open30
 10
1471.314926784496
 20
589.666529050138
 30
0.0
 41
15.0
 42
15.0
 43
15.0
 50
270.0
  0
MTEXT
  5
1CD8
330
124
100
AcDbEntity
  8
寸法線
  6
Continuous
 62
     0
100
AcDbMText
 10
1451.314926784496
 20
624.6665290501383
 30
0.0
 40
30.0
 41
0.0
 71
     5
 72
     1
  1
70
 11
0.0000000000000001
 21
1.0
 31
0.0
 73
     1
 44
1.0
1001
ACAD
1000
MTEXTBEGIN
1070
    73
1070
     1
1070
    44
1040
1.0
1070
    74
1070
     0
1000
MTEXTEND
  0
POINT
  5
1CD9
330
124
100
AcDbEntity
  8
Defpoints
  6
Continuous
 62
     0
100
AcDbPoint
 10
1358.814928784497
 20
659.666529050138
 30
0.0
  0
POINT
  5
1CDA
330
124
100
AcDbEntity
  8
Defpoints
  6
Continuous
 62
     0
100
AcDbPoint
 10
1358.814928784497
 20
589.666529050138
 30
0.0
  0
POINT
  5
1CDB
330
124
100
AcDbEntity
  8
Defpoints
  6
Continuous
 62
     0
100
AcDbPoint
 10
1471.314926784496
 20
589.666529050138
 30
0.0
  0
ENDBLK
  5
12F
330
124
100
AcDbEntity
  8
0
 48
3.0
100
AcDbBlockEnd
  0
BLOCK
  5
13B
330
131
100
AcDbEntity
  8
0
 48
3.0
100
AcDbBlockBegin
  2
*D10
 70
     1
 10
0.0
 20
0.0
 30
0.0
  3
*D10
  1

  0
LINE
  5
1CCA
330
131
100
AcDbEntity
  8
寸法線
  6
Continuous
 62
     0
370
    -2
100
AcDbLine
 10
1378.814931184497
 20
684.666529050138
 30
0.0
 11
1566.314926784496
 21
684.666529050138
 31
0.0
  0
LINE
  5
1CCB
330
131
100
AcDbEntity
  8
寸法線
  6
Continuous
 62
     0
370
    -2
100
AcDbLine
 10
1378.814928784497
 20
584.666529050138
 30
0.0
 11
1566.314926784496
 21
584.666529050138
 31
0.0
  0
LINE
  5
1CCC
330
131
100
AcDbEntity
  8
寸法線
  6
Continuous
 62
     0
370
    -2
100
AcDbLine
 10
1551.314926784496
 20
669.666529050138
 30
0.0
 11
1551.314926784496
 21
599.666529050138
 31
0.0
  0
INSERT
  5
1CCD
330
131
100
AcDbEntity
  8
寸法線
  6
Continuous
 62
     0
370
    -2
100
AcDbBlockReference
  2
_Open30
 10
1551.314926784496
 20
684.666529050138
 30
0.0
 41
15.0
 42
15.0
 43
15.0
 50
90.0
  0
INSERT
  5
1CCE
330
131
100
AcDbEntity
  8
寸法線
  6
Continuous
 62
     0
370
    -2
100
AcDbBlockReference
  2
_Open30
 10
1551.314926784496
 20
584.666529050138
 30
0.0
 41
15.0
 42
15.0
 43
15.0
 50
270.0
  0
MTEXT
  5
1CCF
330
131
100
AcDbEntity
  8
寸法線
  6
Continuous
 62
     0
100
AcDbMText
 10
1531.314926784496
 20
634.6665290501382
 30
0.0
 40
30.0
 41
0.0
 71
     5
 72
     1
  1
100
 11
0.0000000000000001
 21
1.0
 31
0.0
 73
     1
 44
1.0
1001
ACAD
1000
MTEXTBEGIN
1070
    73
1070
     1
1070
    44
1040
1.0
1070
    74
1070
     0
1000
MTEXTEND
  0
POINT
  5
1CD0
330
131
100
AcDbEntity
  8
Defpoints
  6
Continuous
 62
     0
100
AcDbPoint
 10
1358.814931184497
 20
684.666529050138
 30
0.0
  0
POINT
  5
1CD1
330
131
100
AcDbEntity
  8
Defpoints
  6
Continuous
 62
     0
100
AcDbPoint
 10
1358.814928784497
 20
584.666529050138
 30
0.0
  0
POINT
  5
1CD2
330
131
100
AcDbEntity
  8
Defpoints
  6
Continuous
 62
     0
100
AcDbPoint
 10
1551.314926784496
 20
584.666529050138
 30
0.0
  0
ENDBLK
  5
13C
330
131
100
AcDbEntity
  8
0
 48
3.0
100
AcDbBlockEnd
  0
BLOCK
  5
37C
330
372
100
AcDbEntity
  8
0
 48
3.0
100
AcDbBlockBegin
  2
*D11
 70
     1
 10
0.0
 20
0.0
 30
0.0
  3
*D11
  1

  0
LINE
  5
1CAC
330
372
100
AcDbEntity
  8
寸法線
  6
Continuous
 62
     0
370
    -2
100
AcDbLine
 10
1361.314926784496
 20
704.666529050138
 30
0.0
 11
1361.314926784496
 21
859.666529050138
 31
0.0
  0
LINE
  5
1CAD
330
372
100
AcDbEntity
  8
寸法線
  6
Continuous
 62
     0
370
    -2
100
AcDbLine
 10
366.3149287844972
 20
704.666529050138
 30
0.0
 11
366.3149287844972
 21
859.666529050138
 31
0.0
  0
LINE
  5
1CAE
330
372
100
AcDbEntity
  8
寸法線
  6
Continuous
 62
     0
370
    -2
100
AcDbLine
 10
1346.314926784496
 20
844.666529050138
 30
0.0
 11
381.3149287844972
 21
844.666529050138
 31
0.0
  0
INSERT
  5
1CAF
330
372
100
AcDbEntity
  8
寸法線
  6
Continuous
 62
     0
370
    -2
100
AcDbBlockReference
  2
_Open30
 10
1361.314926784496
 20
844.666529050138
 30
0.0
 41
15.0
 42
15.0
 43
15.0
  0
INSERT
  5
1CB0
330
372
100
AcDbEntity
  8
寸法線
  6
Continuous
 62
     0
370
    -2
100
AcDbBlockReference
  2
_Open30
 10
366.3149287844972
 20
844.666529050138
 30
0.0
 41
15.0
 42
15.0
 43
15.0
 50
180.0
  0
MTEXT
  5
1CB1
330
372
100
AcDbEntity
  8
寸法線
  6
Continuous
 62
     0
100
AcDbMText
 10
863.8149277844968
 20
864.6665290501379
 30
0.0
 40
30.0
 41
0.0
 71
     5
 72
     1
  1
995
 73
     1
 44
1.0
1001
ACAD
1000
MTEXTBEGIN
1070
    73
1070
     1
1070
    44
1040
1.0
1070
    74
1070
     0
1000
MTEXTEND
  0
POINT
  5
1CB2
330
372
100
AcDbEntity
  8
Defpoints
  6
Continuous
 62
     0
100
AcDbPoint
 10
1361.314926784496
 20
684.666529050138
 30
0.0
  0
POINT
  5
1CB3
330
372
100
AcDbEntity
  8
Defpoints
  6
Continuous
 62
     0
100
AcDbPoint
 10
366.3149287844972
 20
684.666529050138
 30
0.0
  0
POINT
  5
1CB4
330
372
100
AcDbEntity
  8
Defpoints
  6
Continuous
 62
     0
100
AcDbPoint
 10
366.3149287844972
 20
844.666529050138
 30
0.0
  0
ENDBLK
  5
37D
330
372
100
AcDbEntity
  8
0
 48
3.0
100
AcDbBlockEnd
  0
BLOCK
  5
582
330
576
100
AcDbEntity
  8
0
 48
3.0
100
AcDbBlockBegin
  2
*D12
 70
     1
 10
0.0
 20
0.0
 30
0.0
  3
*D12
  1

  0
LINE
  5
1CDC
330
576
100
AcDbEntity
  8
寸法線
  6
Continuous
 62
     0
370
    -2
100
AcDbLine
 10
1378.814928784497
 20
589.666529050138
 30
0.0
 11
1486.314926784496
 21
589.666529050138
 31
0.0
  0
LINE
  5
1CDD
330
576
100
AcDbEntity
  8
寸法線
  6
Continuous
 62
     0
370
    -2
100
AcDbLine
 10
1378.814928784497
 20
584.666529050138
 30
0.0
 11
1486.314926784496
 21
584.666529050138
 31
0.0
  0
LINE
  5
1CDE
330
576
100
AcDbEntity
  8
寸法線
  6
Continuous
 62
     0
370
    -2
100
AcDbLine
 10
1471.314926784496
 20
604.666529050138
 30
0.0
 11
1471.314926784496
 21
619.666529050138
 31
0.0
  0
LINE
  5
1CDF
330
576
100
AcDbEntity
  8
寸法線
  6
Continuous
 62
     0
370
    -2
100
AcDbLine
 10
1471.314926784496
 20
569.666529050138
 30
0.0
 11
1471.314926784496
 21
529.1335341262802
 31
0.0
  0
LINE
  5
1CE0
330
576
100
AcDbEntity
  8
寸法線
  6
Continuous
 62
     0
370
    -2
100
AcDbLine
 10
1471.314926784496
 20
589.666529050138
 30
0.0
 11
1471.314926784496
 21
584.666529050138
 31
0.0
  0
INSERT
  5
1CE1
330
576
100
AcDbEntity
  8
寸法線
  6
Continuous
 62
     0
370
    -2
100
AcDbBlockReference
  2
_Open30
 10
1471.314926784496
 20
589.666529050138
 30
0.0
 41
15.0
 42
15.0
 43
15.0
 50
270.0
  0
INSERT
  5
1CE2
330
576
100
AcDbEntity
  8
寸法線
  6
Continuous
 62
     0
370
    -2
100
AcDbBlockReference
  2
_Open30
 10
1471.314926784496
 20
584.666529050138
 30
0.0
 41
15.0
 42
15.0
 43
15.0
 50
90.0
  0
MTEXT
  5
1CE3
330
576
100
AcDbEntity
  8
寸法線
  6
Continuous
 62
     0
100
AcDbMText
 10
1451.314926784496
 20
541.9000315882093
 30
0.0
 40
30.0
 41
0.0
 71
     5
 72
     1
  1
5
 11
0.0000000000000001
 21
1.0
 31
0.0
 73
     1
 44
1.0
1001
ACAD
1000
MTEXTBEGIN
1070
    73
1070
     1
1070
    44
1040
1.0
1070
    74
1070
     0
1000
MTEXTEND
  0
POINT
  5
1CE4
330
576
100
AcDbEntity
  8
Defpoints
  6
Continuous
 62
     0
100
AcDbPoint
 10
1358.814928784497
 20
589.666529050138
 30
0.0
  0
POINT
  5
1CE5
330
576
100
AcDbEntity
  8
Defpoints
  6
Continuous
 62
     0
100
AcDbPoint
 10
1358.814928784497
 20
584.666529050138
 30
0.0
  0
POINT
  5
1CE6
330
576
100
AcDbEntity
  8
Defpoints
  6
Continuous
 62
     0
100
AcDbPoint
 10
1471.314926784496
 20
584.666529050138
 30
0.0
  0
ENDBLK
  5
583
330
576
100
AcDbEntity
  8
0
 48
3.0
100
AcDbBlockEnd
  0
BLOCK
  5
1AC8
330
1ABE
100
AcDbEntity
  8
0
 48
3.0
100
AcDbBlockBegin
  2
P-H70
 70
     0
 10
0.0
 20
0.0
 30
0.0
  3
P-H70
  1

  0
LINE
  5
1ABF
330
1ABE
100
AcDbEntity
  8
0
100
AcDbLine
 10
2.999997
 20
0.000001
 30
0.0
 11
66.99999699999999
 21
0.000001
 31
0.0
  0
LINE
  5
1AC0
330
1ABE
100
AcDbEntity
  8
0
100
AcDbLine
 10
-0.000003
 20
-2.999999
 30
0.0
 11
-0.000003
 21
-36.999999
 31
0.0
  0
LINE
  5
1AC1
330
1ABE
100
AcDbEntity
  8
0
100
AcDbLine
 10
2.999997
 20
-39.999999
 30
0.0
 11
66.99999699999999
 21
-39.999999
 31
0.0
  0
ARC
  5
1AC2
330
1ABE
100
AcDbEntity
  8
0
100
AcDbCircle
 10
2.999997
 20
-36.999999
 30
0.0
 40
3.0
100
AcDbArc
 50
180.0
 51
270.0
  0
ARC
  5
1AC3
330
1ABE
100
AcDbEntity
  8
0
100
AcDbCircle
 10
2.999997
 20
-2.999999
 30
0.0
 40
3.0
100
AcDbArc
 50
90.0
 51
180.0
  0
LINE
  5
1AC4
330
1ABE
100
AcDbEntity
  8
0
100
AcDbLine
 10
69.999997
 20
-36.999999
 30
0.0
 11
69.999997
 21
-2.999999
 31
0.0
  0
ARC
  5
1AC5
330
1ABE
100
AcDbEntity
  8
0
100
AcDbCircle
 10
66.99999699999999
 20
-2.999999
 30
0.0
 40
3.0
100
AcDbArc
 50
0.0
 51
90.0
  0
ARC
  5
1AC6
330
1ABE
100
AcDbEntity
  8
0
100
AcDbCircle
 10
66.99999699999999
 20
-36.999999
 30
0.0
 40
3.0
100
AcDbArc
 50
270.0
 51
0.0
  0
LWPOLYLINE
  5
1AC7
330
1ABE
100
AcDbEntity
  8
0
  6
Continuous
100
AcDbPolyline
 90
        4
 70
     1
 43
0.0
 10
2.299996999999999
 20
-37.69999900000001
 10
67.69999699999999
 20
-37.69999900000001
 10
67.69999699999999
 20
-2.299998999999999
 10
2.299996999999999
 20
-2.299998999999999
  0
ENDBLK
  5
1AC9
330
1ABE
100
AcDbEntity
  8
0
 48
3.0
100
AcDbBlockEnd
  0
BLOCK
  5
1C33
330
1C31
100
AcDbEntity
  8
0
 48
3.0
100
AcDbBlockBegin
  2
鎌下
 70
     0
 10
0.0
 20
0.0
 30
0.0
  3
鎌下
  1

  0
MTEXT
  5
1C34
330
1C31
100
AcDbEntity
  8
外枠
  6
Continuous
100
AcDbMText
 10
40.55333581259037
 20
-88.14888116777728
 30
0.0
 40
28.17460800000001
 41
43.8527
 71
     1
 72
     5
  1
{\fHGSeikaishotaiPRO|b0|i0|c128|p65;下}
 73
     1
 44
1.0
1001
ACAD
1000
MTEXTBEGIN
1070
    73
1070
     1
1070
    44
1040
1.0
1070
    74
1070
     0
1000
MTEXTEND
  0
MTEXT
  5
1C35
330
1C31
100
AcDbEntity
  8
外枠
  6
Continuous
100
AcDbMText
 10
40.55333581259037
 20
-45.61885629864991
 30
0.0
 40
28.17460800000001
 41
43.8527
 71
     1
 72
     5
  1
{\fHGSeikaishotaiPRO|b0|i0|c128|p65;鎌}
 73
     1
 44
1.0
1001
ACAD
1000
MTEXTBEGIN
1070
    73
1070
     1
1070
    44
1040
1.0
1070
    74
1070
     0
1000
MTEXTEND
  0
ELLIPSE
  5
1C36
330
1C31
100
AcDbEntity
  8
外枠
  6
Continuous
100
AcDbEllipse
 10
61.68068686355036
 20
-84.59863033186412
 30
0.0
 11
0.0
 21
-47.8594442149426
 31
0.0
210
0.0
220
0.0
230
1.0
 40
0.7999999999999857
 41
0.0
 42
6.283185307179586
  0
ENDBLK
  5
1C37
330
1C31
100
AcDbEntity
  8
0
 48
3.0
100
AcDbBlockEnd
  0
BLOCK
  5
1E16
330
1E0A
100
AcDbEntity
  8
0
 48
3.0
100
AcDbBlockBegin
  2
GFB新
 70
     0
 10
0.0
 20
0.0
 30
0.0
  3
GFB新
  1

  0
LINE
  5
1E0B
330
1E0A
100
AcDbEntity
  8
エンボス
370
     0
100
AcDbLine
 10
-201.8431163161554
 20
211.018054223251
 30
0.0
 11
-201.8431163161554
 21
31.01805422325097
 31
0.0
  0
LINE
  5
1E0C
330
1E0A
100
AcDbEntity
  8
エンボス
370
     0
100
AcDbLine
 10
-171.6031163161556
 20
211.018054223251
 30
0.0
 11
-171.6031163161556
 21
31.01805422325097
 31
0.0
  0
LWPOLYLINE
  5
1E0D
330
1E0A
100
AcDbEntity
  8
エンボス
  6
Continuous
100
AcDbPolyline
 90
        4
 70
     1
 43
0.0
 10
-348.415713090571
 20
299.7131911820901
 10
-14.10000000000036
 20
299.7131911820901
 10
-14.10000000000036
 20
13.47
 10
-348.415713090571
 20
13.47
  0
HATCH
  5
1E0E
330
1E0A
100
AcDbEntity
  8
エンボス
 48
3.0
100
AcDbHatch
 10
0.0
 20
0.0
 30
0.0
210
0.0
220
0.0
230
1.0
  2
ANSI31
 70
     0
 71
     0
 91
        2
 92
        7
 72
     0
 73
     1
 93
        4
 10
-171.6031163161556
 20
183.648232740995
 10
-201.8431163161554
 20
183.648232740995
 10
-201.8431163161554
 20
143.648232740995
 10
-171.6031163161556
 20
143.648232740995
 97
        0
 92
        7
 72
     0
 73
     1
 93
        4
 10
-171.6031163161551
 20
103.648232740995
 10
-201.8431163161554
 20
103.648232740995
 10
-201.8431163161554
 20
63.64823274099504
 10
-171.6031163161556
 20
63.64823274099504
 97
        0
 75
     0
 76
     1
 52
0.0
 41
1.0
 77
     0
 78
     1
 53
45.0
 43
-2600.230945379155
 44
55.27481481577524
 45
-2.245064030267287
 46
2.245064030267288
 79
     0
 47
0.6338635763914874
 98
        2
 10
-184.3538551621914
 20
165.9540090799865
 10
-180.5493471399022
 20
94.32742487381711
  0
LINE
  5
1E0F
330
1E0A
100
AcDbEntity
  8
エンボス
  6
Continuous
100
AcDbLine
 10
-201.8431163161554
 20
183.648232740995
 30
0.0
 11
-171.6031163161551
 21
183.648232740995
 31
0.0
  0
LINE
  5
1E10
330
1E0A
100
AcDbEntity
  8
エンボス
  6
Continuous
100
AcDbLine
 10
-201.8431163161554
 20
143.648232740995
 30
0.0
 11
-171.6031163161551
 21
143.648232740995
 31
0.0
  0
LINE
  5
1E11
330
1E0A
100
AcDbEntity
  8
エンボス
  6
Continuous
100
AcDbLine
 10
-201.8431163161554
 20
103.648232740995
 30
0.0
 11
-171.6031163161551
 21
103.648232740995
 31
0.0
  0
LINE
  5
1E12
330
1E0A
100
AcDbEntity
  8
エンボス
  6
Continuous
100
AcDbLine
 10
-201.8431163161554
 20
63.64823274099504
 30
0.0
 11
-171.6031163161551
 21
63.64823274099504
 31
0.0
  0
TEXT
  5
1E13
330
1E0A
100
AcDbEntity
  8
エンボス
  6
Continuous
100
AcDbText
 10
-308.2412150274576
 20
253.9724615214614
 30
0.0
 40
30.0
  1
GFB形状詳細
100
AcDbText
1001
ACAD
1000
MTEXTBEGIN
1070
    73
1070
     1
1070
    44
1040
1.0
1070
    74
1070
     0
1000
MTEXTEND
1000
MTEXTBEGIN
1070
    73
1070
     1
1070
    44
1040
1.0
1070
    74
1070
     0
1000
MTEXTEND
1000
MTEXTBEGIN
1070
    73
1070
     1
1070
    44
1040
1.0
1070
    74
1070
     0
1000
MTEXTEND
1000
MTEXTBEGIN
1070
    73
1070
     1
1070
    44
1040
1.0
1070
    74
1070
     0
1000
MTEXTEND
  0
MTEXT
  5
1E14
330
1E0A
100
AcDbEntity
  8
エンボス
  6
Continuous
100
AcDbMText
 10
-277.8566471803206
 20
239.7434505767348
 30
0.0
 40
15.0
 41
256.2474
 71
     1
 72
     5
  1
※塗りつぶし部分突起
 73
     1
 44
1.0
1001
ACAD
1000
MTEXTBEGIN
1070
    73
1070
     1
1070
    44
1040
1.0
1070
    74
1070
     0
1000
MTEXTEND
  0
ENDBLK
  5
1E17
330
1E0A
100
AcDbEntity
  8
0
 48
3.0
100
AcDbBlockEnd
  0
BLOCK
  5
1E28
330
1E27
100
AcDbEntity
  8
0
 48
3.0
100
AcDbBlockBegin
  2
*U16
 70
     1
 10
0.0
 20
0.0
 30
0.0
  3
*U16
  1

  0
LWPOLYLINE
  5
1E2E
330
1E27
100
AcDbEntity
  8
本体
  6
Continuous
100
AcDbPolyline
 90
        4
 70
     1
 43
0.0
 10
3.278480999999828
 20
12.5
 10
6.278480999999828
 20
12.5
 10
6.278480999999828
 20
-12.5
 10
3.278480999999828
 20
-12.5
  0
LINE
  5
1E2F
330
1E27
100
AcDbEntity
  8
本体
  6
Continuous
100
AcDbLine
 10
-6.278480999999828
 20
12.5
 30
0.0
 11
3.278480999999828
 21
12.5
 31
0.0
  0
LINE
  5
1E30
330
1E27
100
AcDbEntity
  8
本体
  6
Continuous
100
AcDbLine
 10
-6.278480999999828
 20
7.5
 30
0.0
 11
3.278480999999828
 21
7.5
 31
0.0
  0
LINE
  5
1E31
330
1E27
100
AcDbEntity
  8
本体
  6
Continuous
100
AcDbLine
 10
-6.278480999999828
 20
7.5
 30
0.0
 11
3.278480999999828
 21
12.5
 31
0.0
  0
LINE
  5
1E32
330
1E27
100
AcDbEntity
  8
本体
  6
Continuous
100
AcDbLine
 10
-6.278480999999828
 20
-6.5
 30
0.0
 11
3.278480999999828
 21
-6.5
 31
0.0
  0
ENDBLK
  5
1E29
330
1E27
100
AcDbEntity
  8
0
 48
3.0
100
AcDbBlockEnd
  0
BLOCK
  5
1E2B
330
1E2A
100
AcDbEntity
  8
0
 48
3.0
100
AcDbBlockBegin
  2
*U17
 70
     1
 10
0.0
 20
0.0
 30
0.0
  3
*U17
  1

  0
INSERT
  5
1E41
330
1E2A
100
AcDbEntity
  8
本体
  6
ByBlock
 62
     0
370
    -2
380
     1
100
AcDbBlockReference
  2
*U16
 10
0.0
 20
0.0
 30
0.0
  0
INSERT
  5
1E42
330
1E2A
100
AcDbEntity
  8
本体
  6
ByBlock
 62
     0
370
    -2
380
     1
100
AcDbBlockReference
  2
*U16
 10
12.5569
 20
0.0
 30
0.0
  0
INSERT
  5
1E43
330
1E2A
100
AcDbEntity
  8
本体
  6
ByBlock
 62
     0
370
    -2
380
     1
100
AcDbBlockReference
  2
*U16
 10
25.1138
 20
0.0
 30
0.0
  0
INSERT
  5
1E44
330
1E2A
100
AcDbEntity
  8
本体
  6
ByBlock
 62
     0
370
    -2
380
     1
100
AcDbBlockReference
  2
*U16
 10
37.6707
 20
0.0
 30
0.0
  0
INSERT
  5
1E45
330
1E2A
100
AcDbEntity
  8
本体
  6
ByBlock
 62
     0
370
    -2
380
     1
100
AcDbBlockReference
  2
*U16
 10
50.2276
 20
0.0
 30
0.0
  0
INSERT
  5
1E46
330
1E2A
100
AcDbEntity
  8
本体
  6
ByBlock
 62
     0
370
    -2
380
     1
100
AcDbBlockReference
  2
*U16
 10
62.7845
 20
0.0
 30
0.0
  0
INSERT
  5
1E47
330
1E2A
100
AcDbEntity
  8
本体
  6
ByBlock
 62
     0
370
    -2
380
     1
100
AcDbBlockReference
  2
*U16
 10
75.3414
 20
0.0
 30
0.0
  0
INSERT
  5
1E48
330
1E2A
100
AcDbEntity
  8
本体
  6
ByBlock
 62
     0
370
    -2
380
     1
100
AcDbBlockReference
  2
*U16
 10
87.8983
 20
0.0
 30
0.0
  0
INSERT
  5
1E49
330
1E2A
100
AcDbEntity
  8
本体
  6
ByBlock
 62
     0
370
    -2
380
     1
100
AcDbBlockReference
  2
*U16
 10
100.4552
 20
0.0
 30
0.0
  0
INSERT
  5
1E4A
330
1E2A
100
AcDbEntity
  8
本体
  6
ByBlock
 62
     0
370
    -2
380
     1
100
AcDbBlockReference
  2
*U16
 10
113.0121
 20
0.0
 30
0.0
  0
INSERT
  5
1E4B
330
1E2A
100
AcDbEntity
  8
本体
  6
ByBlock
 62
     0
370
    -2
380
     1
100
AcDbBlockReference
  2
*U16
 10
125.569
 20
0.0
 30
0.0
  0
INSERT
  5
1E4C
330
1E2A
100
AcDbEntity
  8
本体
  6
ByBlock
 62
     0
370
    -2
380
     1
100
AcDbBlockReference
  2
*U16
 10
138.1259
 20
0.0
 30
0.0
  0
INSERT
  5
1E4D
330
1E2A
100
AcDbEntity
  8
本体
  6
ByBlock
 62
     0
370
    -2
380
     1
100
AcDbBlockReference
  2
*U16
 10
150.6828
 20
0.0
 30
0.0
  0
INSERT
  5
1E4E
330
1E2A
100
AcDbEntity
  8
本体
  6
ByBlock
 62
     0
370
    -2
380
     1
100
AcDbBlockReference
  2
*U16
 10
163.2397
 20
0.0
 30
0.0
  0
INSERT
  5
1E4F
330
1E2A
100
AcDbEntity
  8
本体
  6
ByBlock
 62
     0
370
    -2
380
     1
100
AcDbBlockReference
  2
*U16
 10
175.7966
 20
0.0
 30
0.0
  0
INSERT
  5
1E50
330
1E2A
100
AcDbEntity
  8
本体
  6
ByBlock
 62
     0
370
    -2
380
     1
100
AcDbBlockReference
  2
*U16
 10
188.3535
 20
0.0
 30
0.0
  0
INSERT
  5
1E51
330
1E2A
100
AcDbEntity
  8
本体
  6
ByBlock
 62
     0
370
    -2
380
     1
100
AcDbBlockReference
  2
*U16
 10
200.9104
 20
0.0
 30
0.0
  0
INSERT
  5
1E52
330
1E2A
100
AcDbEntity
  8
本体
  6
ByBlock
 62
     0
370
    -2
380
     1
100
AcDbBlockReference
  2
*U16
 10
213.4673
 20
0.0
 30
0.0
  0
INSERT
  5
1E53
330
1E2A
100
AcDbEntity
  8
本体
  6
ByBlock
 62
     0
370
    -2
380
     1
100
AcDbBlockReference
  2
*U16
 10
226.0242
 20
0.0
 30
0.0
  0
INSERT
  5
1E54
330
1E2A
100
AcDbEntity
  8
本体
  6
ByBlock
 62
     0
370
    -2
380
     1
100
AcDbBlockReference
  2
*U16
 10
238.5811
 20
0.0
 30
0.0
  0
INSERT
  5
1E55
330
1E2A
100
AcDbEntity
  8
本体
  6
ByBlock
 62
     0
370
    -2
380
     1
100
AcDbBlockReference
  2
*U16
 10
251.138
 20
0.0
 30
0.0
  0
INSERT
  5
1E56
330
1E2A
100
AcDbEntity
  8
本体
  6
ByBlock
 62
     0
370
    -2
380
     1
100
AcDbBlockReference
  2
*U16
 10
263.6949
 20
0.0
 30
0.0
  0
INSERT
  5
1E57
330
1E2A
100
AcDbEntity
  8
本体
  6
ByBlock
 62
     0
370
    -2
380
     1
100
AcDbBlockReference
  2
*U16
 10
276.2518
 20
0.0
 30
0.0
  0
INSERT
  5
1E58
330
1E2A
100
AcDbEntity
  8
本体
  6
ByBlock
 62
     0
370
    -2
380
     1
100
AcDbBlockReference
  2
*U16
 10
288.8087
 20
0.0
 30
0.0
  0
INSERT
  5
1E59
330
1E2A
100
AcDbEntity
  8
本体
  6
ByBlock
 62
     0
370
    -2
380
     1
100
AcDbBlockReference
  2
*U16
 10
301.3656000000001
 20
0.0
 30
0.0
  0
INSERT
  5
1E5A
330
1E2A
100
AcDbEntity
  8
本体
  6
ByBlock
 62
     0
370
    -2
380
     1
100
AcDbBlockReference
  2
*U16
 10
313.9225
 20
0.0
 30
0.0
  0
INSERT
  5
1E5B
330
1E2A
100
AcDbEntity
  8
本体
  6
ByBlock
 62
     0
370
    -2
380
     1
100
AcDbBlockReference
  2
*U16
 10
326.4794
 20
0.0
 30
0.0
  0
INSERT
  5
1E5C
330
1E2A
100
AcDbEntity
  8
本体
  6
ByBlock
 62
     0
370
    -2
380
     1
100
AcDbBlockReference
  2
*U16
 10
339.0363000000001
 20
0.0
 30
0.0
  0
INSERT
  5
1E5D
330
1E2A
100
AcDbEntity
  8
本体
  6
ByBlock
 62
     0
370
    -2
380
     1
100
AcDbBlockReference
  2
*U16
 10
351.5932
 20
0.0
 30
0.0
  0
INSERT
  5
1E5E
330
1E2A
100
AcDbEntity
  8
本体
  6
ByBlock
 62
     0
370
    -2
380
     1
100
AcDbBlockReference
  2
*U16
 10
364.1501
 20
0.0
 30
0.0
  0
INSERT
  5
1E5F
330
1E2A
100
AcDbEntity
  8
本体
  6
ByBlock
 62
     0
370
    -2
380
     1
100
AcDbBlockReference
  2
*U16
 10
376.707
 20
0.0
 30
0.0
  0
INSERT
  5
1E60
330
1E2A
100
AcDbEntity
  8
本体
  6
ByBlock
 62
     0
370
    -2
380
     1
100
AcDbBlockReference
  2
*U16
 10
389.2639
 20
0.0
 30
0.0
  0
INSERT
  5
1E61
330
1E2A
100
AcDbEntity
  8
本体
  6
ByBlock
 62
     0
370
    -2
380
     1
100
AcDbBlockReference
  2
*U16
 10
401.8208
 20
0.0
 30
0.0
  0
INSERT
  5
1E62
330
1E2A
100
AcDbEntity
  8
本体
  6
ByBlock
 62
     0
370
    -2
380
     1
100
AcDbBlockReference
  2
*U16
 10
414.3777
 20
0.0
 30
0.0
  0
INSERT
  5
1E63
330
1E2A
100
AcDbEntity
  8
本体
  6
ByBlock
 62
     0
370
    -2
380
     1
100
AcDbBlockReference
  2
*U16
 10
426.9346
 20
0.0
 30
0.0
  0
INSERT
  5
1E64
330
1E2A
100
AcDbEntity
  8
本体
  6
ByBlock
 62
     0
370
    -2
380
     1
100
AcDbBlockReference
  2
*U16
 10
439.4915
 20
0.0
 30
0.0
  0
INSERT
  5
1E65
330
1E2A
100
AcDbEntity
  8
本体
  6
ByBlock
 62
     0
370
    -2
380
     1
100
AcDbBlockReference
  2
*U16
 10
452.0484
 20
0.0
 30
0.0
  0
INSERT
  5
1E66
330
1E2A
100
AcDbEntity
  8
本体
  6
ByBlock
 62
     0
370
    -2
380
     1
100
AcDbBlockReference
  2
*U16
 10
464.6053
 20
0.0
 30
0.0
  0
INSERT
  5
1E67
330
1E2A
100
AcDbEntity
  8
本体
  6
ByBlock
 62
     0
370
    -2
380
     1
100
AcDbBlockReference
  2
*U16
 10
477.1622
 20
0.0
 30
0.0
  0
INSERT
  5
1E68
330
1E2A
100
AcDbEntity
  8
本体
  6
ByBlock
 62
     0
370
    -2
380
     1
100
AcDbBlockReference
  2
*U16
 10
489.7191
 20
0.0
 30
0.0
  0
INSERT
  5
1E69
330
1E2A
100
AcDbEntity
  8
本体
  6
ByBlock
 62
     0
370
    -2
380
     1
100
AcDbBlockReference
  2
*U16
 10
502.2759999999999
 20
0.0
 30
0.0
  0
INSERT
  5
1E6A
330
1E2A
100
AcDbEntity
  8
本体
  6
ByBlock
 62
     0
370
    -2
380
     1
100
AcDbBlockReference
  2
*U16
 10
514.8329
 20
0.0
 30
0.0
  0
INSERT
  5
1E6B
330
1E2A
100
AcDbEntity
  8
本体
  6
ByBlock
 62
     0
370
    -2
380
     1
100
AcDbBlockReference
  2
*U16
 10
527.3898
 20
0.0
 30
0.0
  0
INSERT
  5
1E6C
330
1E2A
100
AcDbEntity
  8
本体
  6
ByBlock
 62
     0
370
    -2
380
     1
100
AcDbBlockReference
  2
*U16
 10
539.9467
 20
0.0
 30
0.0
  0
INSERT
  5
1E6D
330
1E2A
100
AcDbEntity
  8
本体
  6
ByBlock
 62
     0
370
    -2
380
     1
100
AcDbBlockReference
  2
*U16
 10
552.5036
 20
0.0
 30
0.0
  0
INSERT
  5
1E6E
330
1E2A
100
AcDbEntity
  8
本体
  6
ByBlock
 62
     0
370
    -2
380
     1
100
AcDbBlockReference
  2
*U16
 10
565.0605
 20
0.0
 30
0.0
  0
INSERT
  5
1E6F
330
1E2A
100
AcDbEntity
  8
本体
  6
ByBlock
 62
     0
370
    -2
380
     1
100
AcDbBlockReference
  2
*U16
 10
577.6174
 20
0.0
 30
0.0
  0
INSERT
  5
1E70
330
1E2A
100
AcDbEntity
  8
本体
  6
ByBlock
 62
     0
370
    -2
380
     1
100
AcDbBlockReference
  2
*U16
 10
590.1743
 20
0.0
 30
0.0
  0
INSERT
  5
1E71
330
1E2A
100
AcDbEntity
  8
本体
  6
ByBlock
 62
     0
370
    -2
380
     1
100
AcDbBlockReference
  2
*U16
 10
602.7312000000001
 20
0.0
 30
0.0
  0
INSERT
  5
1E72
330
1E2A
100
AcDbEntity
  8
本体
  6
ByBlock
 62
     0
370
    -2
380
     1
100
AcDbBlockReference
  2
*U16
 10
615.2880999999999
 20
0.0
 30
0.0
  0
INSERT
  5
1E73
330
1E2A
100
AcDbEntity
  8
本体
  6
ByBlock
 62
     0
370
    -2
380
     1
100
AcDbBlockReference
  2
*U16
 10
627.845
 20
0.0
 30
0.0
  0
INSERT
  5
1E74
330
1E2A
100
AcDbEntity
  8
本体
  6
ByBlock
 62
     0
370
    -2
380
     1
100
AcDbBlockReference
  2
*U16
 10
640.4019
 20
0.0
 30
0.0
  0
INSERT
  5
1E75
330
1E2A
100
AcDbEntity
  8
本体
  6
ByBlock
 62
     0
370
    -2
380
     1
100
AcDbBlockReference
  2
*U16
 10
652.9588
 20
0.0
 30
0.0
  0
INSERT
  5
1E76
330
1E2A
100
AcDbEntity
  8
本体
  6
ByBlock
 62
     0
370
    -2
380
     1
100
AcDbBlockReference
  2
*U16
 10
665.5157
 20
0.0
 30
0.0
  0
INSERT
  5
1E77
330
1E2A
100
AcDbEntity
  8
本体
  6
ByBlock
 62
     0
370
    -2
380
     1
100
AcDbBlockReference
  2
*U16
 10
678.0726000000001
 20
0.0
 30
0.0
  0
INSERT
  5
1E78
330
1E2A
100
AcDbEntity
  8
本体
  6
ByBlock
 62
     0
370
    -2
380
     1
100
AcDbBlockReference
  2
*U16
 10
690.6295
 20
0.0
 30
0.0
  0
INSERT
  5
1E79
330
1E2A
100
AcDbEntity
  8
本体
  6
ByBlock
 62
     0
370
    -2
380
     1
100
AcDbBlockReference
  2
*U16
 10
703.1864
 20
0.0
 30
0.0
  0
INSERT
  5
1E7A
330
1E2A
100
AcDbEntity
  8
本体
  6
ByBlock
 62
     0
370
    -2
380
     1
100
AcDbBlockReference
  2
*U16
 10
715.7433000000001
 20
0.0
 30
0.0
  0
INSERT
  5
1E7B
330
1E2A
100
AcDbEntity
  8
本体
  6
ByBlock
 62
     0
370
    -2
380
     1
100
AcDbBlockReference
  2
*U16
 10
728.3002
 20
0.0
 30
0.0
  0
INSERT
  5
1E7C
330
1E2A
100
AcDbEntity
  8
本体
  6
ByBlock
 62
     0
370
    -2
380
     1
100
AcDbBlockReference
  2
*U16
 10
740.8571000000001
 20
0.0
 30
0.0
  0
INSERT
  5
1E7D
330
1E2A
100
AcDbEntity
  8
本体
  6
ByBlock
 62
     0
370
    -2
380
     1
100
AcDbBlockReference
  2
*U16
 10
753.4139999999999
 20
0.0
 30
0.0
  0
INSERT
  5
1E7E
330
1E2A
100
AcDbEntity
  8
本体
  6
ByBlock
 62
     0
370
    -2
380
     1
100
AcDbBlockReference
  2
*U16
 10
765.9709
 20
0.0
 30
0.0
  0
INSERT
  5
1E7F
330
1E2A
100
AcDbEntity
  8
本体
  6
ByBlock
 62
     0
370
    -2
380
     1
100
AcDbBlockReference
  2
*U16
 10
778.5278
 20
0.0
 30
0.0
  0
INSERT
  5
1E80
330
1E2A
100
AcDbEntity
  8
本体
  6
ByBlock
 62
     0
370
    -2
380
     1
100
AcDbBlockReference
  2
*U16
 10
791.0847
 20
0.0
 30
0.0
  0
INSERT
  5
1E81
330
1E2A
100
AcDbEntity
  8
本体
  6
ByBlock
 62
     0
370
    -2
380
     1
100
AcDbBlockReference
  2
*U16
 10
803.6416
 20
0.0
 30
0.0
  0
INSERT
  5
1E82
330
1E2A
100
AcDbEntity
  8
本体
  6
ByBlock
 62
     0
370
    -2
380
     1
100
AcDbBlockReference
  2
*U16
 10
816.1985000000001
 20
0.0
 30
0.0
  0
INSERT
  5
1E83
330
1E2A
100
AcDbEntity
  8
本体
  6
ByBlock
 62
     0
370
    -2
380
     1
100
AcDbBlockReference
  2
*U16
 10
828.7554
 20
0.0
 30
0.0
  0
INSERT
  5
1E84
330
1E2A
100
AcDbEntity
  8
本体
  6
ByBlock
 62
     0
370
    -2
380
     1
100
AcDbBlockReference
  2
*U16
 10
841.3123
 20
0.0
 30
0.0
  0
INSERT
  5
1E85
330
1E2A
100
AcDbEntity
  8
本体
  6
ByBlock
 62
     0
370
    -2
380
     1
100
AcDbBlockReference
  2
*U16
 10
853.8692000000001
 20
0.0
 30
0.0
  0
INSERT
  5
1E86
330
1E2A
100
AcDbEntity
  8
本体
  6
ByBlock
 62
     0
370
    -2
380
     1
100
AcDbBlockReference
  2
*U16
 10
866.4260999999999
 20
0.0
 30
0.0
  0
INSERT
  5
1E87
330
1E2A
100
AcDbEntity
  8
本体
  6
ByBlock
 62
     0
370
    -2
380
     1
100
AcDbBlockReference
  2
*U16
 10
878.983
 20
0.0
 30
0.0
  0
INSERT
  5
1E88
330
1E2A
100
AcDbEntity
  8
本体
  6
ByBlock
 62
     0
370
    -2
380
     1
100
AcDbBlockReference
  2
*U16
 10
891.5399
 20
0.0
 30
0.0
  0
INSERT
  5
1E89
330
1E2A
100
AcDbEntity
  8
本体
  6
ByBlock
 62
     0
370
    -2
380
     1
100
AcDbBlockReference
  2
*U16
 10
904.0968000000001
 20
0.0
 30
0.0
  0
INSERT
  5
1E8A
330
1E2A
100
AcDbEntity
  8
本体
  6
ByBlock
 62
     0
370
    -2
380
     1
100
AcDbBlockReference
  2
*U16
 10
916.6537000000001
 20
0.0
 30
0.0
  0
INSERT
  5
1E8B
330
1E2A
100
AcDbEntity
  8
本体
  6
ByBlock
 62
     0
370
    -2
380
     1
100
AcDbBlockReference
  2
*U16
 10
929.2106
 20
0.0
 30
0.0
  0
INSERT
  5
1E8C
330
1E2A
100
AcDbEntity
  8
本体
  6
ByBlock
 62
     0
370
    -2
380
     1
100
AcDbBlockReference
  2
*U16
 10
941.7675
 20
0.0
 30
0.0
  0
INSERT
  5
1E8D
330
1E2A
100
AcDbEntity
  8
本体
  6
ByBlock
 62
     0
370
    -2
380
     1
100
AcDbBlockReference
  2
*U16
 10
954.3244000000001
 20
0.0
 30
0.0
  0
INSERT
  5
1E8E
330
1E2A
100
AcDbEntity
  8
本体
  6
ByBlock
 62
     0
370
    -2
380
     1
100
AcDbBlockReference
  2
*U16
 10
966.8813
 20
0.0
 30
0.0
  0
ENDBLK
  5
1E2C
330
1E2A
100
AcDbEntity
  8
0
 48
3.0
100
AcDbBlockEnd
  0
BLOCK
  5
1F13
330
1F12
100
AcDbEntity
  8
0
 48
3.0
100
AcDbBlockBegin
  2
*U18
 70
     1
 10
0.0
 20
0.0
 30
0.0
  3
*U18
  1

  0
LINE
  5
1F19
330
1F12
100
AcDbEntity
  8
本体
  6
Continuous
100
AcDbLine
 10
7.778480984999987
 20
210.5000000000002
 30
0.0
 11
7.778480984999987
 21
152.5000000000002
 31
0.0
  0
LINE
  5
1F1A
330
1F12
100
AcDbEntity
  8
本体
  6
Continuous
100
AcDbLine
 10
4.778480984999987
 20
210.5000000000002
 30
0.0
 11
4.778480984999987
 21
152.5000000000002
 31
0.0
  0
LINE
  5
1F1B
330
1F12
100
AcDbEntity
  8
本体
  6
Continuous
100
AcDbLine
 10
7.778480984999987
 20
147.5000000000002
 30
0.0
 11
7.778480984999987
 21
52.5
 31
0.0
  0
LINE
  5
1F1C
330
1F12
100
AcDbEntity
  8
本体
  6
Continuous
100
AcDbLine
 10
4.778480984999987
 20
147.5000000000002
 30
0.0
 11
4.778480984999987
 21
52.5
 31
0.0
  0
LINE
  5
1F1D
330
1F12
100
AcDbEntity
  8
本体
  6
Continuous
100
AcDbLine
 10
4.778480984999987
 20
47.50000000000023
 30
0.0
 11
4.778480984999987
 21
-47.5
 31
0.0
  0
LINE
  5
1F1E
330
1F12
100
AcDbEntity
  8
本体
  6
Continuous
100
AcDbLine
 10
7.778480984999987
 20
47.50000000000023
 30
0.0
 11
7.778480984999987
 21
-47.5
 31
0.0
  0
LINE
  5
1F1F
330
1F12
100
AcDbEntity
  8
本体
  6
Continuous
100
AcDbLine
 10
4.778480984999987
 20
-52.49999999999977
 30
0.0
 11
4.778480984999987
 21
-147.5
 31
0.0
  0
LINE
  5
1F20
330
1F12
100
AcDbEntity
  8
本体
  6
Continuous
100
AcDbLine
 10
7.778480984999987
 20
-52.49999999999977
 30
0.0
 11
7.778480984999987
 21
-147.5
 31
0.0
  0
LINE
  5
1F21
330
1F12
100
AcDbEntity
  8
本体
  6
Continuous
100
AcDbLine
 10
7.778480984999987
 20
-210.5000000000002
 30
0.0
 11
7.778480984999987
 21
-152.5000000000002
 31
0.0
  0
LINE
  5
1F22
330
1F12
100
AcDbEntity
  8
本体
  6
Continuous
100
AcDbLine
 10
4.778480984999987
 20
-210.5000000000002
 30
0.0
 11
4.778480984999987
 21
-152.5000000000002
 31
0.0
  0
LINE
  5
1F23
330
1F12
100
AcDbEntity
  8
本体
  6
Continuous
100
AcDbLine
 10
-7.778481015000124
 20
147.5000000000002
 30
0.0
 11
4.778480984999987
 21
152.5000000000002
 31
0.0
  0
LINE
  5
1F24
330
1F12
100
AcDbEntity
  8
本体
  6
Continuous
100
AcDbLine
 10
-7.778481015000124
 20
47.50000000000023
 30
0.0
 11
4.778480984999987
 21
52.50000000000023
 31
0.0
  0
LINE
  5
1F25
330
1F12
100
AcDbEntity
  8
本体
  6
Continuous
100
AcDbLine
 10
-7.778481015000124
 20
-52.49999999999977
 30
0.0
 11
4.778480984999987
 21
-47.49999999999977
 31
0.0
  0
LINE
  5
1F26
330
1F12
100
AcDbEntity
  8
本体
  6
Continuous
100
AcDbLine
 10
-7.778481015000124
 20
-152.4999999999997
 30
0.0
 11
4.778480984999987
 21
-147.4999999999997
 31
0.0
  0
LINE
  5
1F27
330
1F12
100
AcDbEntity
  8
エンボス
  6
Continuous
100
AcDbLine
 10
7.778481015000124
 20
158.0000000000002
 30
0.0
 11
4.778481015000124
 21
159.2000000000003
 31
0.0
  0
LINE
  5
1F28
330
1F12
100
AcDbEntity
  8
エンボス
  6
Continuous
100
AcDbLine
 10
7.778481015000124
 20
186.0000000000002
 30
0.0
 11
4.778481015000124
 21
187.2000000000003
 31
0.0
  0
LINE
  5
1F29
330
1F12
100
AcDbEntity
  8
エンボス
  6
Continuous
100
AcDbLine
 10
4.778481015000124
 20
190.2000000000002
 30
0.0
 11
7.778481015000124
 21
191.4000000000001
 31
0.0
  0
LINE
  5
1F2A
330
1F12
100
AcDbEntity
  8
エンボス
  6
Continuous
100
AcDbLine
 10
4.778481015000124
 20
178.2000000000002
 30
0.0
 11
7.778481015000124
 21
177.0000000000002
 31
0.0
  0
LINE
  5
1F2B
330
1F12
100
AcDbEntity
  8
エンボス
  6
Continuous
100
AcDbLine
 10
7.778481015000124
 20
172.4000000000001
 30
0.0
 11
4.778481015000124
 21
171.2000000000003
 31
0.0
  0
LINE
  5
1F2C
330
1F12
100
AcDbEntity
  8
エンボス
  6
Continuous
100
AcDbLine
 10
4.778481015000124
 20
162.2000000000002
 30
0.0
 11
7.778481015000124
 21
163.4000000000001
 31
0.0
  0
LINE
  5
1F2D
330
1F12
100
AcDbEntity
  8
エンボス
  6
Continuous
100
AcDbLine
 10
7.778481015000124
 20
200.4000000000001
 30
0.0
 11
4.778481015000124
 21
199.2000000000003
 31
0.0
  0
LINE
  5
1F2E
330
1F12
100
AcDbEntity
  8
エンボス
  6
Continuous
100
AcDbLine
 10
4.778481015000124
 20
206.2000000000003
 30
0.0
 11
7.778481015000124
 21
205.0000000000002
 31
0.0
  0
LINE
  5
1F2F
330
1F12
100
AcDbEntity
  8
エンボス
  6
Continuous
100
AcDbLine
 10
7.778481015000124
 20
62.89999999999986
 30
0.0
 11
4.778481015000124
 21
61.70000000000005
 31
0.0
  0
LINE
  5
1F30
330
1F12
100
AcDbEntity
  8
エンボス
  6
Continuous
100
AcDbLine
 10
4.778481015000124
 20
68.70000000000004
 30
0.0
 11
7.778481015000124
 21
67.5
 31
0.0
  0
LINE
  5
1F31
330
1F12
100
AcDbEntity
  8
エンボス
  6
Continuous
100
AcDbLine
 10
7.778481015000124
 20
76.5
 30
0.0
 11
4.778481015000124
 21
77.70000000000004
 31
0.0
  0
LINE
  5
1F32
330
1F12
100
AcDbEntity
  8
エンボス
  6
Continuous
100
AcDbLine
 10
4.778481015000124
 20
80.70000000000005
 30
0.0
 11
7.778481015000124
 21
81.89999999999987
 31
0.0
  0
LINE
  5
1F33
330
1F12
100
AcDbEntity
  8
エンボス
  6
Continuous
100
AcDbLine
 10
4.778481015000124
 20
96.70000000000005
 30
0.0
 11
7.778481015000124
 21
95.5
 31
0.0
  0
LINE
  5
1F34
330
1F12
100
AcDbEntity
  8
エンボス
  6
Continuous
100
AcDbLine
 10
7.778481015000124
 20
90.89999999999987
 30
0.0
 11
4.778481015000124
 21
89.70000000000004
 31
0.0
  0
LINE
  5
1F35
330
1F12
100
AcDbEntity
  8
エンボス
  6
Continuous
100
AcDbLine
 10
7.778481015000124
 20
104.5
 30
0.0
 11
4.778481015000124
 21
105.7
 31
0.0
  0
LINE
  5
1F36
330
1F12
100
AcDbEntity
  8
エンボス
  6
Continuous
100
AcDbLine
 10
4.778481015000124
 20
108.7
 30
0.0
 11
7.778481015000124
 21
109.8999999999998
 31
0.0
  0
LINE
  5
1F37
330
1F12
100
AcDbEntity
  8
エンボス
  6
Continuous
100
AcDbLine
 10
7.778481015000124
 20
118.8999999999998
 30
0.0
 11
4.778481015000124
 21
117.7
 31
0.0
  0
LINE
  5
1F38
330
1F12
100
AcDbEntity
  8
エンボス
  6
Continuous
100
AcDbLine
 10
7.778481015000124
 20
132.5
 30
0.0
 11
4.778481015000124
 21
133.7
 31
0.0
  0
LINE
  5
1F39
330
1F12
100
AcDbEntity
  8
エンボス
  6
Continuous
100
AcDbLine
 10
4.778481015000124
 20
136.7
 30
0.0
 11
7.778481015000124
 21
137.8999999999998
 31
0.0
  0
LINE
  5
1F3A
330
1F12
100
AcDbEntity
  8
エンボス
  6
Continuous
100
AcDbLine
 10
4.778481015000124
 20
124.7
 30
0.0
 11
7.778481015000124
 21
123.5
 31
0.0
  0
LINE
  5
1F3B
330
1F12
100
AcDbEntity
  8
エンボス
  6
Continuous
100
AcDbLine
 10
4.778481015000124
 20
-31.29999999999995
 30
0.0
 11
7.778481015000124
 21
-32.5
 31
0.0
  0
LINE
  5
1F3C
330
1F12
100
AcDbEntity
  8
エンボス
  6
Continuous
100
AcDbLine
 10
7.778481015000124
 20
-37.10000000000014
 30
0.0
 11
4.778481015000124
 21
-38.29999999999996
 31
0.0
  0
LINE
  5
1F3D
330
1F12
100
AcDbEntity
  8
エンボス
  6
Continuous
100
AcDbLine
 10
4.778481015000124
 20
-19.29999999999995
 30
0.0
 11
7.778481015000124
 21
-18.10000000000013
 31
0.0
  0
LINE
  5
1F3E
330
1F12
100
AcDbEntity
  8
エンボス
  6
Continuous
100
AcDbLine
 10
7.778481015000124
 20
-23.5
 30
0.0
 11
4.778481015000124
 21
-22.29999999999995
 31
0.0
  0
LINE
  5
1F3F
330
1F12
100
AcDbEntity
  8
エンボス
  6
Continuous
100
AcDbLine
 10
4.778481015000124
 20
8.700000000000045
 30
0.0
 11
7.778481015000124
 21
9.899999999999863
 31
0.0
  0
LINE
  5
1F40
330
1F12
100
AcDbEntity
  8
エンボス
  6
Continuous
100
AcDbLine
 10
7.778481015000124
 20
4.5
 30
0.0
 11
4.778481015000124
 21
5.700000000000045
 31
0.0
  0
LINE
  5
1F41
330
1F12
100
AcDbEntity
  8
エンボス
  6
Continuous
100
AcDbLine
 10
7.778481015000124
 20
-9.100000000000136
 30
0.0
 11
4.778481015000124
 21
-10.29999999999995
 31
0.0
  0
LINE
  5
1F42
330
1F12
100
AcDbEntity
  8
エンボス
  6
Continuous
100
AcDbLine
 10
4.778481015000124
 20
-3.299999999999954
 30
0.0
 11
7.778481015000124
 21
-4.5
 31
0.0
  0
LINE
  5
1F43
330
1F12
100
AcDbEntity
  8
エンボス
  6
Continuous
100
AcDbLine
 10
4.778481015000124
 20
24.70000000000005
 30
0.0
 11
7.778481015000124
 21
23.5
 31
0.0
  0
LINE
  5
1F44
330
1F12
100
AcDbEntity
  8
エンボス
  6
Continuous
100
AcDbLine
 10
7.778481015000124
 20
18.89999999999986
 30
0.0
 11
4.778481015000124
 21
17.70000000000004
 31
0.0
  0
LINE
  5
1F45
330
1F12
100
AcDbEntity
  8
エンボス
  6
Continuous
100
AcDbLine
 10
4.778481015000124
 20
36.70000000000005
 30
0.0
 11
7.778481015000124
 21
37.89999999999987
 31
0.0
  0
LINE
  5
1F46
330
1F12
100
AcDbEntity
  8
エンボス
  6
Continuous
100
AcDbLine
 10
7.778481015000124
 20
32.5
 30
0.0
 11
4.778481015000124
 21
33.70000000000004
 31
0.0
  0
LINE
  5
1F47
330
1F12
100
AcDbEntity
  8
エンボス
  6
Continuous
100
AcDbLine
 10
4.778481015000124
 20
-63.29999999999995
 30
0.0
 11
7.778481015000124
 21
-62.10000000000014
 31
0.0
  0
LINE
  5
1F48
330
1F12
100
AcDbEntity
  8
エンボス
  6
Continuous
100
AcDbLine
 10
7.778481015000124
 20
-137.1000000000001
 30
0.0
 11
4.778481015000124
 21
-138.2999999999999
 31
0.0
  0
LINE
  5
1F49
330
1F12
100
AcDbEntity
  8
エンボス
  6
Continuous
100
AcDbLine
 10
4.778481015000124
 20
-119.2999999999999
 30
0.0
 11
7.778481015000124
 21
-118.1000000000001
 31
0.0
  0
LINE
  5
1F4A
330
1F12
100
AcDbEntity
  8
エンボス
  6
Continuous
100
AcDbLine
 10
7.778481015000124
 20
-123.5
 30
0.0
 11
4.778481015000124
 21
-122.2999999999999
 31
0.0
  0
LINE
  5
1F4B
330
1F12
100
AcDbEntity
  8
エンボス
  6
Continuous
100
AcDbLine
 10
4.778481015000124
 20
-131.2999999999999
 30
0.0
 11
7.778481015000124
 21
-132.5
 31
0.0
  0
LINE
  5
1F4C
330
1F12
100
AcDbEntity
  8
エンボス
  6
Continuous
100
AcDbLine
 10
7.778481015000124
 20
-109.1000000000001
 30
0.0
 11
4.778481015000124
 21
-110.2999999999999
 31
0.0
  0
LINE
  5
1F4D
330
1F12
100
AcDbEntity
  8
エンボス
  6
Continuous
100
AcDbLine
 10
4.778481015000124
 20
-103.2999999999999
 30
0.0
 11
7.778481015000124
 21
-104.5
 31
0.0
  0
LINE
  5
1F4E
330
1F12
100
AcDbEntity
  8
エンボス
  6
Continuous
100
AcDbLine
 10
4.778481015000124
 20
-75.29999999999995
 30
0.0
 11
7.778481015000124
 21
-76.5
 31
0.0
  0
LINE
  5
1F4F
330
1F12
100
AcDbEntity
  8
エンボス
  6
Continuous
100
AcDbLine
 10
7.778481015000124
 20
-81.10000000000013
 30
0.0
 11
4.778481015000124
 21
-82.29999999999995
 31
0.0
  0
LINE
  5
1F50
330
1F12
100
AcDbEntity
  8
エンボス
  6
Continuous
100
AcDbLine
 10
4.778481015000124
 20
-91.29999999999995
 30
0.0
 11
7.778481015000124
 21
-90.10000000000013
 31
0.0
  0
LINE
  5
1F51
330
1F12
100
AcDbEntity
  8
エンボス
  6
Continuous
100
AcDbLine
 10
7.778481015000124
 20
-95.5
 30
0.0
 11
4.778481015000124
 21
-94.29999999999996
 31
0.0
  0
LINE
  5
1F52
330
1F12
100
AcDbEntity
  8
エンボス
  6
Continuous
100
AcDbLine
 10
7.778481015000124
 20
-67.5
 30
0.0
 11
4.778481015000124
 21
-66.29999999999995
 31
0.0
  0
LINE
  5
1F53
330
1F12
100
AcDbEntity
  8
エンボス
  6
Continuous
100
AcDbLine
 10
7.778481015000124
 20
-177.0000000000002
 30
0.0
 11
4.778481015000124
 21
-175.8000000000001
 31
0.0
  0
LINE
  5
1F54
330
1F12
100
AcDbEntity
  8
エンボス
  6
Continuous
100
AcDbLine
 10
4.778481015000124
 20
-184.8000000000002
 30
0.0
 11
7.778481015000124
 21
-186.0000000000002
 31
0.0
  0
LINE
  5
1F55
330
1F12
100
AcDbEntity
  8
エンボス
  6
Continuous
100
AcDbLine
 10
7.778481015000124
 20
-190.6000000000003
 30
0.0
 11
4.778481015000124
 21
-191.8000000000002
 31
0.0
  0
LINE
  5
1F56
330
1F12
100
AcDbEntity
  8
エンボス
  6
Continuous
100
AcDbLine
 10
7.778481015000124
 20
-205.0000000000002
 30
0.0
 11
4.778481015000124
 21
-203.8000000000002
 31
0.0
  0
LINE
  5
1F57
330
1F12
100
AcDbEntity
  8
エンボス
  6
Continuous
100
AcDbLine
 10
4.778481015000124
 20
-200.8000000000002
 30
0.0
 11
7.778481015000124
 21
-199.6000000000003
 31
0.0
  0
LINE
  5
1F58
330
1F12
100
AcDbEntity
  8
エンボス
  6
Continuous
100
AcDbLine
 10
4.778481015000124
 20
-172.8000000000001
 30
0.0
 11
7.778481015000124
 21
-171.6000000000003
 31
0.0
  0
LINE
  5
1F59
330
1F12
100
AcDbEntity
  8
エンボス
  6
Continuous
100
AcDbLine
 10
7.778481015000124
 20
-162.6000000000003
 30
0.0
 11
4.778481015000124
 21
-163.8000000000002
 31
0.0
  0
LINE
  5
1F5A
330
1F12
100
AcDbEntity
  8
エンボス
  6
Continuous
100
AcDbLine
 10
4.778481015000124
 20
-156.8000000000002
 30
0.0
 11
7.778481015000124
 21
-158.0000000000002
 31
0.0
  0
ENDBLK
  5
1F14
330
1F12
100
AcDbEntity
  8
0
 48
3.0
100
AcDbBlockEnd
  0
BLOCK
  5
1F16
330
1F15
100
AcDbEntity
  8
0
 48
3.0
100
AcDbBlockBegin
  2
*U19
 70
     1
 10
0.0
 20
0.0
 30
0.0
  3
*U19
  1

  0
INSERT
  5
1F65
330
1F15
100
AcDbEntity
  8
本体
  6
ByBlock
 62
     0
370
    -2
380
     1
100
AcDbBlockReference
  2
*U18
 10
0.0
 20
0.0
 30
0.0
  0
INSERT
  5
1F66
330
1F15
100
AcDbEntity
  8
本体
  6
ByBlock
 62
     0
370
    -2
380
     1
100
AcDbBlockReference
  2
*U18
 10
12.5569
 20
0.0
 30
0.0
  0
INSERT
  5
1F67
330
1F15
100
AcDbEntity
  8
本体
  6
ByBlock
 62
     0
370
    -2
380
     1
100
AcDbBlockReference
  2
*U18
 10
25.1138
 20
0.0
 30
0.0
  0
INSERT
  5
1F68
330
1F15
100
AcDbEntity
  8
本体
  6
ByBlock
 62
     0
370
    -2
380
     1
100
AcDbBlockReference
  2
*U18
 10
37.6707
 20
0.0
 30
0.0
  0
INSERT
  5
1F69
330
1F15
100
AcDbEntity
  8
本体
  6
ByBlock
 62
     0
370
    -2
380
     1
100
AcDbBlockReference
  2
*U18
 10
50.2276
 20
0.0
 30
0.0
  0
INSERT
  5
1F6A
330
1F15
100
AcDbEntity
  8
本体
  6
ByBlock
 62
     0
370
    -2
380
     1
100
AcDbBlockReference
  2
*U18
 10
62.7845
 20
0.0
 30
0.0
  0
INSERT
  5
1F6B
330
1F15
100
AcDbEntity
  8
本体
  6
ByBlock
 62
     0
370
    -2
380
     1
100
AcDbBlockReference
  2
*U18
 10
75.3414
 20
0.0
 30
0.0
  0
INSERT
  5
1F6C
330
1F15
100
AcDbEntity
  8
本体
  6
ByBlock
 62
     0
370
    -2
380
     1
100
AcDbBlockReference
  2
*U18
 10
87.8983
 20
0.0
 30
0.0
  0
INSERT
  5
1F6D
330
1F15
100
AcDbEntity
  8
本体
  6
ByBlock
 62
     0
370
    -2
380
     1
100
AcDbBlockReference
  2
*U18
 10
100.4552
 20
0.0
 30
0.0
  0
INSERT
  5
1F6E
330
1F15
100
AcDbEntity
  8
本体
  6
ByBlock
 62
     0
370
    -2
380
     1
100
AcDbBlockReference
  2
*U18
 10
113.0121
 20
0.0
 30
0.0
  0
INSERT
  5
1F6F
330
1F15
100
AcDbEntity
  8
本体
  6
ByBlock
 62
     0
370
    -2
380
     1
100
AcDbBlockReference
  2
*U18
 10
125.569
 20
0.0
 30
0.0
  0
INSERT
  5
1F70
330
1F15
100
AcDbEntity
  8
本体
  6
ByBlock
 62
     0
370
    -2
380
     1
100
AcDbBlockReference
  2
*U18
 10
138.1259
 20
0.0
 30
0.0
  0
INSERT
  5
1F71
330
1F15
100
AcDbEntity
  8
本体
  6
ByBlock
 62
     0
370
    -2
380
     1
100
AcDbBlockReference
  2
*U18
 10
150.6828
 20
0.0
 30
0.0
  0
INSERT
  5
1F72
330
1F15
100
AcDbEntity
  8
本体
  6
ByBlock
 62
     0
370
    -2
380
     1
100
AcDbBlockReference
  2
*U18
 10
163.2397
 20
0.0
 30
0.0
  0
INSERT
  5
1F73
330
1F15
100
AcDbEntity
  8
本体
  6
ByBlock
 62
     0
370
    -2
380
     1
100
AcDbBlockReference
  2
*U18
 10
175.7966
 20
0.0
 30
0.0
  0
INSERT
  5
1F74
330
1F15
100
AcDbEntity
  8
本体
  6
ByBlock
 62
     0
370
    -2
380
     1
100
AcDbBlockReference
  2
*U18
 10
188.3535
 20
0.0
 30
0.0
  0
INSERT
  5
1F75
330
1F15
100
AcDbEntity
  8
本体
  6
ByBlock
 62
     0
370
    -2
380
     1
100
AcDbBlockReference
  2
*U18
 10
200.9104
 20
0.0
 30
0.0
  0
INSERT
  5
1F76
330
1F15
100
AcDbEntity
  8
本体
  6
ByBlock
 62
     0
370
    -2
380
     1
100
AcDbBlockReference
  2
*U18
 10
213.4673
 20
0.0
 30
0.0
  0
INSERT
  5
1F77
330
1F15
100
AcDbEntity
  8
本体
  6
ByBlock
 62
     0
370
    -2
380
     1
100
AcDbBlockReference
  2
*U18
 10
226.0242
 20
0.0
 30
0.0
  0
INSERT
  5
1F78
330
1F15
100
AcDbEntity
  8
本体
  6
ByBlock
 62
     0
370
    -2
380
     1
100
AcDbBlockReference
  2
*U18
 10
238.5811
 20
0.0
 30
0.0
  0
INSERT
  5
1F79
330
1F15
100
AcDbEntity
  8
本体
  6
ByBlock
 62
     0
370
    -2
380
     1
100
AcDbBlockReference
  2
*U18
 10
251.138
 20
0.0
 30
0.0
  0
INSERT
  5
1F7A
330
1F15
100
AcDbEntity
  8
本体
  6
ByBlock
 62
     0
370
    -2
380
     1
100
AcDbBlockReference
  2
*U18
 10
263.6949
 20
0.0
 30
0.0
  0
INSERT
  5
1F7B
330
1F15
100
AcDbEntity
  8
本体
  6
ByBlock
 62
     0
370
    -2
380
     1
100
AcDbBlockReference
  2
*U18
 10
276.2518
 20
0.0
 30
0.0
  0
INSERT
  5
1F7C
330
1F15
100
AcDbEntity
  8
本体
  6
ByBlock
 62
     0
370
    -2
380
     1
100
AcDbBlockReference
  2
*U18
 10
288.8087
 20
0.0
 30
0.0
  0
INSERT
  5
1F7D
330
1F15
100
AcDbEntity
  8
本体
  6
ByBlock
 62
     0
370
    -2
380
     1
100
AcDbBlockReference
  2
*U18
 10
301.3656000000001
 20
0.0
 30
0.0
  0
INSERT
  5
1F7E
330
1F15
100
AcDbEntity
  8
本体
  6
ByBlock
 62
     0
370
    -2
380
     1
100
AcDbBlockReference
  2
*U18
 10
313.9225
 20
0.0
 30
0.0
  0
INSERT
  5
1F7F
330
1F15
100
AcDbEntity
  8
本体
  6
ByBlock
 62
     0
370
    -2
380
     1
100
AcDbBlockReference
  2
*U18
 10
326.4794
 20
0.0
 30
0.0
  0
INSERT
  5
1F80
330
1F15
100
AcDbEntity
  8
本体
  6
ByBlock
 62
     0
370
    -2
380
     1
100
AcDbBlockReference
  2
*U18
 10
339.0363000000001
 20
0.0
 30
0.0
  0
INSERT
  5
1F81
330
1F15
100
AcDbEntity
  8
本体
  6
ByBlock
 62
     0
370
    -2
380
     1
100
AcDbBlockReference
  2
*U18
 10
351.5932
 20
0.0
 30
0.0
  0
INSERT
  5
1F82
330
1F15
100
AcDbEntity
  8
本体
  6
ByBlock
 62
     0
370
    -2
380
     1
100
AcDbBlockReference
  2
*U18
 10
364.1501
 20
0.0
 30
0.0
  0
INSERT
  5
1F83
330
1F15
100
AcDbEntity
  8
本体
  6
ByBlock
 62
     0
370
    -2
380
     1
100
AcDbBlockReference
  2
*U18
 10
376.707
 20
0.0
 30
0.0
  0
INSERT
  5
1F84
330
1F15
100
AcDbEntity
  8
本体
  6
ByBlock
 62
     0
370
    -2
380
     1
100
AcDbBlockReference
  2
*U18
 10
389.2639
 20
0.0
 30
0.0
  0
INSERT
  5
1F85
330
1F15
100
AcDbEntity
  8
本体
  6
ByBlock
 62
     0
370
    -2
380
     1
100
AcDbBlockReference
  2
*U18
 10
401.8208
 20
0.0
 30
0.0
  0
INSERT
  5
1F86
330
1F15
100
AcDbEntity
  8
本体
  6
ByBlock
 62
     0
370
    -2
380
     1
100
AcDbBlockReference
  2
*U18
 10
414.3777
 20
0.0
 30
0.0
  0
INSERT
  5
1F87
330
1F15
100
AcDbEntity
  8
本体
  6
ByBlock
 62
     0
370
    -2
380
     1
100
AcDbBlockReference
  2
*U18
 10
426.9346
 20
0.0
 30
0.0
  0
INSERT
  5
1F88
330
1F15
100
AcDbEntity
  8
本体
  6
ByBlock
 62
     0
370
    -2
380
     1
100
AcDbBlockReference
  2
*U18
 10
439.4915
 20
0.0
 30
0.0
  0
INSERT
  5
1F89
330
1F15
100
AcDbEntity
  8
本体
  6
ByBlock
 62
     0
370
    -2
380
     1
100
AcDbBlockReference
  2
*U18
 10
452.0484
 20
0.0
 30
0.0
  0
INSERT
  5
1F8A
330
1F15
100
AcDbEntity
  8
本体
  6
ByBlock
 62
     0
370
    -2
380
     1
100
AcDbBlockReference
  2
*U18
 10
464.6053
 20
0.0
 30
0.0
  0
INSERT
  5
1F8B
330
1F15
100
AcDbEntity
  8
本体
  6
ByBlock
 62
     0
370
    -2
380
     1
100
AcDbBlockReference
  2
*U18
 10
477.1622
 20
0.0
 30
0.0
  0
INSERT
  5
1F8C
330
1F15
100
AcDbEntity
  8
本体
  6
ByBlock
 62
     0
370
    -2
380
     1
100
AcDbBlockReference
  2
*U18
 10
489.7191
 20
0.0
 30
0.0
  0
INSERT
  5
1F8D
330
1F15
100
AcDbEntity
  8
本体
  6
ByBlock
 62
     0
370
    -2
380
     1
100
AcDbBlockReference
  2
*U18
 10
502.2759999999999
 20
0.0
 30
0.0
  0
INSERT
  5
1F8E
330
1F15
100
AcDbEntity
  8
本体
  6
ByBlock
 62
     0
370
    -2
380
     1
100
AcDbBlockReference
  2
*U18
 10
514.8329
 20
0.0
 30
0.0
  0
INSERT
  5
1F8F
330
1F15
100
AcDbEntity
  8
本体
  6
ByBlock
 62
     0
370
    -2
380
     1
100
AcDbBlockReference
  2
*U18
 10
527.3898
 20
0.0
 30
0.0
  0
INSERT
  5
1F90
330
1F15
100
AcDbEntity
  8
本体
  6
ByBlock
 62
     0
370
    -2
380
     1
100
AcDbBlockReference
  2
*U18
 10
539.9467
 20
0.0
 30
0.0
  0
INSERT
  5
1F91
330
1F15
100
AcDbEntity
  8
本体
  6
ByBlock
 62
     0
370
    -2
380
     1
100
AcDbBlockReference
  2
*U18
 10
552.5036
 20
0.0
 30
0.0
  0
INSERT
  5
1F92
330
1F15
100
AcDbEntity
  8
本体
  6
ByBlock
 62
     0
370
    -2
380
     1
100
AcDbBlockReference
  2
*U18
 10
565.0605
 20
0.0
 30
0.0
  0
INSERT
  5
1F93
330
1F15
100
AcDbEntity
  8
本体
  6
ByBlock
 62
     0
370
    -2
380
     1
100
AcDbBlockReference
  2
*U18
 10
577.6174
 20
0.0
 30
0.0
  0
INSERT
  5
1F94
330
1F15
100
AcDbEntity
  8
本体
  6
ByBlock
 62
     0
370
    -2
380
     1
100
AcDbBlockReference
  2
*U18
 10
590.1743
 20
0.0
 30
0.0
  0
INSERT
  5
1F95
330
1F15
100
AcDbEntity
  8
本体
  6
ByBlock
 62
     0
370
    -2
380
     1
100
AcDbBlockReference
  2
*U18
 10
602.7312000000001
 20
0.0
 30
0.0
  0
INSERT
  5
1F96
330
1F15
100
AcDbEntity
  8
本体
  6
ByBlock
 62
     0
370
    -2
380
     1
100
AcDbBlockReference
  2
*U18
 10
615.2880999999999
 20
0.0
 30
0.0
  0
INSERT
  5
1F97
330
1F15
100
AcDbEntity
  8
本体
  6
ByBlock
 62
     0
370
    -2
380
     1
100
AcDbBlockReference
  2
*U18
 10
627.845
 20
0.0
 30
0.0
  0
INSERT
  5
1F98
330
1F15
100
AcDbEntity
  8
本体
  6
ByBlock
 62
     0
370
    -2
380
     1
100
AcDbBlockReference
  2
*U18
 10
640.4019
 20
0.0
 30
0.0
  0
INSERT
  5
1F99
330
1F15
100
AcDbEntity
  8
本体
  6
ByBlock
 62
     0
370
    -2
380
     1
100
AcDbBlockReference
  2
*U18
 10
652.9588
 20
0.0
 30
0.0
  0
INSERT
  5
1F9A
330
1F15
100
AcDbEntity
  8
本体
  6
ByBlock
 62
     0
370
    -2
380
     1
100
AcDbBlockReference
  2
*U18
 10
665.5157
 20
0.0
 30
0.0
  0
INSERT
  5
1F9B
330
1F15
100
AcDbEntity
  8
本体
  6
ByBlock
 62
     0
370
    -2
380
     1
100
AcDbBlockReference
  2
*U18
 10
678.0726000000001
 20
0.0
 30
0.0
  0
INSERT
  5
1F9C
330
1F15
100
AcDbEntity
  8
本体
  6
ByBlock
 62
     0
370
    -2
380
     1
100
AcDbBlockReference
  2
*U18
 10
690.6295
 20
0.0
 30
0.0
  0
INSERT
  5
1F9D
330
1F15
100
AcDbEntity
  8
本体
  6
ByBlock
 62
     0
370
    -2
380
     1
100
AcDbBlockReference
  2
*U18
 10
703.1864
 20
0.0
 30
0.0
  0
INSERT
  5
1F9E
330
1F15
100
AcDbEntity
  8
本体
  6
ByBlock
 62
     0
370
    -2
380
     1
100
AcDbBlockReference
  2
*U18
 10
715.7433000000001
 20
0.0
 30
0.0
  0
INSERT
  5
1F9F
330
1F15
100
AcDbEntity
  8
本体
  6
ByBlock
 62
     0
370
    -2
380
     1
100
AcDbBlockReference
  2
*U18
 10
728.3002
 20
0.0
 30
0.0
  0
INSERT
  5
1FA0
330
1F15
100
AcDbEntity
  8
本体
  6
ByBlock
 62
     0
370
    -2
380
     1
100
AcDbBlockReference
  2
*U18
 10
740.8571000000001
 20
0.0
 30
0.0
  0
INSERT
  5
1FA1
330
1F15
100
AcDbEntity
  8
本体
  6
ByBlock
 62
     0
370
    -2
380
     1
100
AcDbBlockReference
  2
*U18
 10
753.4139999999999
 20
0.0
 30
0.0
  0
INSERT
  5
1FA2
330
1F15
100
AcDbEntity
  8
本体
  6
ByBlock
 62
     0
370
    -2
380
     1
100
AcDbBlockReference
  2
*U18
 10
765.9709
 20
0.0
 30
0.0
  0
INSERT
  5
1FA3
330
1F15
100
AcDbEntity
  8
本体
  6
ByBlock
 62
     0
370
    -2
380
     1
100
AcDbBlockReference
  2
*U18
 10
778.5278
 20
0.0
 30
0.0
  0
INSERT
  5
1FA4
330
1F15
100
AcDbEntity
  8
本体
  6
ByBlock
 62
     0
370
    -2
380
     1
100
AcDbBlockReference
  2
*U18
 10
791.0847
 20
0.0
 30
0.0
  0
INSERT
  5
1FA5
330
1F15
100
AcDbEntity
  8
本体
  6
ByBlock
 62
     0
370
    -2
380
     1
100
AcDbBlockReference
  2
*U18
 10
803.6416
 20
0.0
 30
0.0
  0
INSERT
  5
1FA6
330
1F15
100
AcDbEntity
  8
本体
  6
ByBlock
 62
     0
370
    -2
380
     1
100
AcDbBlockReference
  2
*U18
 10
816.1985000000001
 20
0.0
 30
0.0
  0
INSERT
  5
1FA7
330
1F15
100
AcDbEntity
  8
本体
  6
ByBlock
 62
     0
370
    -2
380
     1
100
AcDbBlockReference
  2
*U18
 10
828.7554
 20
0.0
 30
0.0
  0
INSERT
  5
1FA8
330
1F15
100
AcDbEntity
  8
本体
  6
ByBlock
 62
     0
370
    -2
380
     1
100
AcDbBlockReference
  2
*U18
 10
841.3123
 20
0.0
 30
0.0
  0
INSERT
  5
1FA9
330
1F15
100
AcDbEntity
  8
本体
  6
ByBlock
 62
     0
370
    -2
380
     1
100
AcDbBlockReference
  2
*U18
 10
853.8692000000001
 20
0.0
 30
0.0
  0
INSERT
  5
1FAA
330
1F15
100
AcDbEntity
  8
本体
  6
ByBlock
 62
     0
370
    -2
380
     1
100
AcDbBlockReference
  2
*U18
 10
866.4260999999999
 20
0.0
 30
0.0
  0
INSERT
  5
1FAB
330
1F15
100
AcDbEntity
  8
本体
  6
ByBlock
 62
     0
370
    -2
380
     1
100
AcDbBlockReference
  2
*U18
 10
878.983
 20
0.0
 30
0.0
  0
INSERT
  5
1FAC
330
1F15
100
AcDbEntity
  8
本体
  6
ByBlock
 62
     0
370
    -2
380
     1
100
AcDbBlockReference
  2
*U18
 10
891.5399
 20
0.0
 30
0.0
  0
INSERT
  5
1FAD
330
1F15
100
AcDbEntity
  8
本体
  6
ByBlock
 62
     0
370
    -2
380
     1
100
AcDbBlockReference
  2
*U18
 10
904.0968000000001
 20
0.0
 30
0.0
  0
INSERT
  5
1FAE
330
1F15
100
AcDbEntity
  8
本体
  6
ByBlock
 62
     0
370
    -2
380
     1
100
AcDbBlockReference
  2
*U18
 10
916.6537000000001
 20
0.0
 30
0.0
  0
INSERT
  5
1FAF
330
1F15
100
AcDbEntity
  8
本体
  6
ByBlock
 62
     0
370
    -2
380
     1
100
AcDbBlockReference
  2
*U18
 10
929.2106
 20
0.0
 30
0.0
  0
INSERT
  5
1FB0
330
1F15
100
AcDbEntity
  8
本体
  6
ByBlock
 62
     0
370
    -2
380
     1
100
AcDbBlockReference
  2
*U18
 10
941.7675
 20
0.0
 30
0.0
  0
INSERT
  5
1FB1
330
1F15
100
AcDbEntity
  8
本体
  6
ByBlock
 62
     0
370
    -2
380
     1
100
AcDbBlockReference
  2
*U18
 10
954.3244000000001
 20
0.0
 30
0.0
  0
INSERT
  5
1FB2
330
1F15
100
AcDbEntity
  8
本体
  6
ByBlock
 62
     0
370
    -2
380
     1
100
AcDbBlockReference
  2
*U18
 10
966.8813
 20
0.0
 30
0.0
  0
ENDBLK
  5
1F17
330
1F15
100
AcDbEntity
  8
0
 48
3.0
100
AcDbBlockEnd
  0
BLOCK
  5
2012
330
2011
100
AcDbEntity
  8
0
 48
3.0
100
AcDbBlockBegin
  2
*D20
 70
     1
 10
0.0
 20
0.0
 30
0.0
  3
*D20
  1

  0
LINE
  5
2013
330
2011
100
AcDbEntity
  8
本体
 62
     0
 48
3.0
370
    -2
100
AcDbLine
 10
998.3945972221627
 20
522.9692677332953
 30
0.0
 11
1002.894597222163
 21
522.9692677332953
 31
0.0
  0
LINE
  5
2014
330
2011
100
AcDbEntity
  8
本体
 62
     0
 48
3.0
370
    -2
100
AcDbLine
 10
997.8945972221627
 20
519.769267733295
 30
0.0
 11
1002.894597222163
 21
519.769267733295
 31
0.0
  0
LINE
  5
2015
330
2011
100
AcDbEntity
  8
本体
 62
     0
 48
3.0
370
    -2
100
AcDbLine
 10
1017.894597222162
 20
537.9692677332952
 30
0.0
 11
1017.894597222162
 21
552.9692677332953
 31
0.0
  0
LINE
  5
2016
330
2011
100
AcDbEntity
  8
本体
 62
     0
 48
3.0
370
    -2
100
AcDbLine
 10
1017.894597222162
 20
504.769267733295
 30
0.0
 11
1017.894597222162
 21
425.0992169718736
 31
0.0
  0
LINE
  5
2017
330
2011
100
AcDbEntity
  8
本体
 62
     0
 48
3.0
370
    -2
100
AcDbLine
 10
1017.894597222162
 20
522.9692677332953
 30
0.0
 11
1017.894597222162
 21
519.769267733295
 31
0.0
  0
INSERT
  5
2018
330
2011
100
AcDbEntity
  8
本体
 62
     0
 48
3.0
370
    -2
100
AcDbBlockReference
  2
_Open30
 10
1017.894597222162
 20
522.9692677332953
 30
0.0
 41
15.0
 42
15.0
 43
15.0
 50
270.0
  0
INSERT
  5
2019
330
2011
100
AcDbEntity
  8
本体
 62
     0
 48
3.0
370
    -2
100
AcDbBlockReference
  2
_Open30
 10
1017.894597222162
 20
519.769267733295
 30
0.0
 41
15.0
 42
15.0
 43
15.0
 50
90.0
  0
MTEXT
  5
201A
330
2011
100
AcDbEntity
  8
本体
 62
     0
 48
3.0
100
AcDbMText
 10
997.8945972221625
 20
457.4342423525845
 30
0.0
 40
30.0
 41
0.0
 71
     5
 72
     1
  1
3.2
 11
0.0000000000000001
 21
1.0
 31
0.0
 73
     1
 44
1.0
1001
ACAD
1000
MTEXTBEGIN
1070
    73
1070
     1
1070
    44
1040
1.0
1070
    74
1070
     0
1000
MTEXTEND
  0
POINT
  5
201B
330
2011
100
AcDbEntity
  8
Defpoints
 62
     0
 48
3.0
100
AcDbPoint
 10
1018.394597222163
 20
522.9692677332953
 30
0.0
  0
POINT
  5
201C
330
2011
100
AcDbEntity
  8
Defpoints
 62
     0
 48
3.0
100
AcDbPoint
 10
1017.894597222162
 20
519.769267733295
 30
0.0
  0
POINT
  5
201D
330
2011
100
AcDbEntity
  8
Defpoints
 62
     0
 48
3.0
100
AcDbPoint
 10
1017.894597222162
 20
519.769267733295
 30
0.0
  0
ENDBLK
  5
201E
330
2011
100
AcDbEntity
  8
0
 48
3.0
100
AcDbBlockEnd
  0
BLOCK
  5
2022
330
201F
100
AcDbEntity
  8
0
 48
3.0
100
AcDbBlockBegin
  2
A$C33A24C28
 70
     0
 10
0.0
 20
0.0
 30
0.0
  3
A$C33A24C28
  1

  0
DIMENSION
  5
2020
330
201F
100
AcDbEntity
  8
本体
 48
3.0
100
AcDbDimension
  2
*D20
 10
24.67948719999959
 20
-3.200000000000272
 30
0.0
 11
4.679487199999471
 21
-65.53502538071075
 31
0.0
 12
-993.2151100221631
 22
-522.9692677332953
 32
0.0
 71
     5
 42
3.200000000000272
  3
ISO-25
100
AcDbAlignedDimension
 13
25.17948719999959
 23
0.0
 33
0.0
 14
24.67948719999959
 24
-3.200000000000272
 34
0.0
 50
90.0
100
AcDbRotatedDimension
  0
ENDBLK
  5
2023
330
201F
100
AcDbEntity
  8
0
 48
3.0
100
AcDbBlockEnd
  0
ENDSEC
  0
SECTION
  2
ENTITIES
  0
LINE
  5
12
330
2
100
AcDbEntity
  8
外枠
 48
80.0
370
     9
100
AcDbLine
 10
0.0
 20
0.0
 30
0.0
 11
2789.511161023067
 21
0.0
 31
0.0
  0
LINE
  5
13
330
2
100
AcDbEntity
  8
外枠
 48
80.0
370
     9
100
AcDbLine
 10
2789.511161023071
 20
1973.26911249564
 30
0.0
 11
0.0
 21
1973.26911249564
 31
0.0
  0
LINE
  5
14
330
2
100
AcDbEntity
  8
外枠
 48
100.0
370
     9
100
AcDbLine
 10
10.0
 20
10.0
 30
0.0
 11
2780.119625023061
 21
10.0
 31
0.0
  0
LINE
  5
17
330
2
100
AcDbEntity
  8
外枠
  6
Continuous
 48
100.0
370
     9
100
AcDbLine
 10
9.999999999996362
 20
155.3992728208031
 30
0.0
 11
2780.119625023061
 21
155.3992728207995
 31
0.0
  0
LINE
  5
18
330
2
100
AcDbEntity
  8
外枠
  6
Continuous
 48
100.0
370
     9
100
AcDbLine
 10
9.999999999996362
 20
160.0950408208045
 30
0.0
 11
2780.119625023061
 21
160.0950408207973
 31
0.0
  0
LINE
  5
19
330
2
100
AcDbEntity
  8
外枠
 48
100.0
370
     9
100
AcDbLine
 10
10.0
 20
1963.877576495633
 30
0.0
 11
2780.119625023053
 21
1963.877576495637
 31
0.0
  0
LINE
  5
1A
330
2
100
AcDbEntity
  8
外枠
 48
80.0
370
     9
100
AcDbLine
 10
0.0
 20
0.0
 30
0.0
 11
0.0
 21
1973.26911249564
 31
0.0
  0
LINE
  5
1B
330
2
100
AcDbEntity
  8
外枠
 48
100.0
370
     9
100
AcDbLine
 10
10.0
 20
1963.877576495633
 30
0.0
 11
10.0
 21
10.0
 31
0.0
  0
LINE
  5
1C
330
2
100
AcDbEntity
  8
外枠
  6
Continuous
 48
100.0
370
     9
100
AcDbLine
 10
10.0
 20
82.69963641040158
 30
0.0
 11
1153.530108552004
 21
82.69963641039794
 31
0.0
  0
MTEXT
  5
1E
330
2
100
AcDbEntity
  8
外枠
  6
Continuous
 48
100.0
370
     9
100
AcDbMText
 10
246.8574963386418
 20
64.81814764649607
 30
0.0
 40
35.0
 41
532.9183
 71
     1
 72
     5
  1
430\U+00D7995\U+00D725/100
 73
     1
 44
1.0
1001
ACAD
1000
MTEXTBEGIN
1070
    73
1070
     1
1070
    44
1040
1.0
1070
    74
1070
     0
1000
MTEXTEND
  0
MTEXT
  5
1F
330
2
100
AcDbEntity
  8
外枠
  6
Continuous
 48
100.0
370
     9
100
AcDbMText
 10
76.61659604009765
 20
137.3760680266387
 30
0.0
 40
30.0
 41
126.3036
 71
     1
 72
     5
  1
T-2
 73
     1
 44
1.0
1001
ACAD
1000
MTEXTBEGIN
1070
    73
1070
     1
1070
    44
1040
1.0
1070
    74
1070
     0
1000
MTEXTEND
  0
MTEXT
  5
20
330
2
100
AcDbEntity
  8
外枠
  6
Continuous
 48
100.0
370
     9
100
AcDbMText
 10
82.93258377064921
 20
59.95966632915224
 30
0.0
 40
35.0
 41
88.86979999999999
 71
     1
 72
     5
  1
EKH
 73
     1
 44
1.0
1001
ACAD
1000
MTEXTBEGIN
1070
    73
1070
     1
1070
    44
1040
1.0
1070
    74
1070
     0
1000
MTEXTEND
  0
LINE
  5
21
330
2
100
AcDbEntity
  8
外枠
 48
100.0
370
     9
100
AcDbLine
 10
45.0
 20
155.3992728208031
 30
0.0
 11
45.0
 21
10.0
 31
0.0
  0
MTEXT
  5
22
330
2
100
AcDbEntity
  8
外枠
  6
Continuous
 48
100.0
370
     9
100
AcDbMText
 10
15.05670849094895
 20
75.82038473524153
 30
0.0
 40
20.0
 41
23.52947333656417
 71
     1
 72
     5
  1
品\P番
 73
     1
 44
1.0
1001
ACAD
1000
MTEXTBEGIN
1070
    73
1070
     1
1070
    44
1040
1.0
1070
    74
1070
     0
1000
MTEXTEND
  0
MTEXT
  5
23
330
2
100
AcDbEntity
  8
外枠
  6
Continuous
 48
100.0
370
     9
100
AcDbMText
 10
14.92010060012399
 20
149.3317229429121
 30
0.0
 40
20.0
 41
30.07989939987533
 71
     1
 72
     5
  1
荷\P重
 73
     1
 44
1.0
1001
ACAD
1000
MTEXTBEGIN
1070
    73
1070
     1
1070
    44
1040
1.0
1070
    74
1070
     0
1000
MTEXTEND
  0
LINE
  5
24
330
2
100
AcDbEntity
  8
外枠
 48
100.0
370
     9
100
AcDbLine
 10
179.1040495562847
 20
155.3992728208031
 30
0.0
 11
179.1040495562847
 21
10.0
 31
0.0
  0
MTEXT
  5
25
330
2
100
AcDbEntity
  8
外枠
  6
Continuous
 48
100.0
370
     9
100
AcDbMText
 10
271.7517807368968
 20
133.8572910967996
 30
0.0
 40
30.0
 41
271.6208
 71
     1
 72
     5
  1
300用
 73
     1
 44
1.0
1001
ACAD
1000
MTEXTBEGIN
1070
    73
1070
     1
1070
    44
1040
1.0
1070
    74
1070
     0
1000
MTEXTEND
  0
MTEXT
  5
26
330
2
100
AcDbEntity
  8
外枠
  6
Continuous
 48
100.0
370
     9
100
AcDbMText
 10
184.4346535744698
 20
149.3074501239389
 30
0.0
 40
20.0
 41
29.6694
 71
     1
 72
     5
  1
溝幅
 73
     1
 44
1.0
1001
ACAD
1000
MTEXTBEGIN
1070
    73
1070
     1
1070
    44
1040
1.0
1070
    74
1070
     0
1000
MTEXTEND
  0
LINE
  5
27
330
2
100
AcDbEntity
  8
外枠
 48
100.0
370
     9
100
AcDbLine
 10
214.1040495562847
 20
155.3992728208031
 30
0.0
 11
214.1040495562847
 21
82.69963641040158
 31
0.0
  0
MTEXT
  5
28
330
2
100
AcDbEntity
  8
外枠
  6
Continuous
 48
100.0
370
     9
100
AcDbMText
 10
477.8955451146976
 20
149.3074501239389
 30
0.0
 40
20.0
 41
29.6694
 71
     1
 72
     5
  1
品名
 73
     1
 44
1.0
1001
ACAD
1000
MTEXTBEGIN
1070
    73
1070
     1
1070
    44
1040
1.0
1070
    74
1070
     0
1000
MTEXTEND
  0
LINE
  5
29
330
2
100
AcDbEntity
  8
外枠
 48
100.0
370
     9
100
AcDbLine
 10
472.5649410965124
 20
155.3992728208031
 30
0.0
 11
472.5649410965124
 21
82.69963641040158
 31
0.0
  0
LINE
  5
2A
330
2
100
AcDbEntity
  8
外枠
 48
100.0
370
     9
100
AcDbLine
 10
507.5649410965125
 20
155.3992728208031
 30
0.0
 11
507.5649410965125
 21
82.69963641040158
 31
0.0
  0
MTEXT
  5
2B
330
2
100
AcDbEntity
  8
外枠
  6
Continuous
 48
100.0
370
     9
100
AcDbMText
 10
728.477887653953
 20
76.92551173516403
 30
0.0
 40
20.0
 41
664.6118999999999
 71
     1
 72
     5
  1
摘\P要
 73
     1
 44
1.0
1001
ACAD
1000
MTEXTBEGIN
1070
    73
1070
     1
1070
    44
1040
1.0
1070
    74
1070
     0
1000
MTEXTEND
  0
LINE
  5
2C
330
2
100
AcDbEntity
  8
外枠
 48
100.0
370
     9
100
AcDbLine
 10
723.8282373115871
 20
82.6996364103943
 30
0.0
 11
723.8282373115871
 21
9.999999999992724
 31
0.0
  0
LINE
  5
2F
330
2
100
AcDbEntity
  8
外枠
 48
100.0
370
     9
100
AcDbLine
 10
758.8282373115871
 20
82.6996364103943
 30
0.0
 11
758.8282373115871
 21
9.999999999992724
 31
0.0
  0
LINE
  5
31
330
2
100
AcDbEntity
  8
外枠
 48
100.0
370
     9
100
AcDbLine
 10
974.9513069700951
 20
82.6996364103943
 30
0.0
 11
974.9513069700951
 21
9.999999999992724
 31
0.0
  0
MTEXT
  5
32
330
2
100
AcDbEntity
  8
外枠
  6
Continuous
 48
100.0
370
     9
100
AcDbMText
 10
979.7329598959768
 20
74.84825461820583
 30
0.0
 40
20.0
 41
31.38947761565365
 71
     1
 72
     5
  1
材\P質
 73
     1
 44
1.0
1001
ACAD
1000
MTEXTBEGIN
1070
    73
1070
     1
1070
    44
1040
1.0
1070
    74
1070
     0
1000
MTEXTEND
  0
LINE
  5
33
330
2
100
AcDbEntity
  8
外枠
 48
100.0
370
     9
100
AcDbLine
 10
1009.951306970095
 20
82.6996364103943
 30
0.0
 11
1009.951306970095
 21
9.999999999992724
 31
0.0
  0
LINE
  5
37
330
2
100
AcDbEntity
  8
外枠
 48
80.0
370
     9
100
AcDbLine
 10
2789.511161023067
 20
0.0
 30
0.0
 11
2789.511161023071
 21
1973.26911249564
 31
0.0
  0
LINE
  5
38
330
2
100
AcDbEntity
  8
外枠
 48
100.0
370
     9
100
AcDbLine
 10
2780.119625023053
 20
1963.877576495637
 30
0.0
 11
2780.119625023061
 21
10.0
 31
0.0
  0
LINE
  5
3A
330
2
100
AcDbEntity
  8
外枠
 48
3.0
100
AcDbLine
 10
1607.072254912545
 20
61.67068719952067
 30
0.0
 11
2262.173600934632
 21
61.67068719952067
 31
0.0
  0
MTEXT
  5
3B
330
2
100
AcDbEntity
  8
外枠
  6
Continuous
 48
100.0
370
     9
100
AcDbMText
 10
1683.622173868318
 20
50.71504764095289
 30
0.0
 40
30.00024
 41
539.4827578564582
 71
     1
 72
     5
  1
T A K A R A   G R A T I N G
 73
     1
 44
1.0
1001
ACAD
1000
MTEXTBEGIN
1070
    73
1070
     1
1070
    44
1040
1.0
1070
    74
1070
     0
1000
MTEXTEND
  0
MTEXT
  5
3C
330
2
100
AcDbEntity
  8
外枠
  6
Continuous
 48
100.0
370
     9
100
AcDbMText
 10
1728.02061463669
 20
127.1672938476838
 30
0.0
 40
30.0
 41
282.8297
 71
     1
 72
     5
  1
株 式 会 社
 73
     1
 44
1.0
1001
ACAD
1000
MTEXTBEGIN
1070
    73
1070
     1
1070
    44
1040
1.0
1070
    74
1070
     0
1000
MTEXTEND
  0
LINE
  5
3D
330
2
100
AcDbEntity
  8
外枠
  6
Continuous
 48
100.0
370
     9
100
AcDbLine
 10
1508.680137877982
 20
155.3992728208068
 30
0.0
 11
1508.680137877982
 21
10.00000000000364
 31
0.0
  0
LINE
  5
3E
330
2
100
AcDbEntity
  8
外枠
  6
Continuous
 48
100.0
370
     9
100
AcDbLine
 10
1593.95141853916
 20
155.3992728207995
 30
0.0
 11
1593.95141853916
 21
9.999999999996362
 31
0.0
  0
LINE
  5
3F
330
2
100
AcDbEntity
  8
外枠
  6
Continuous
 48
100.0
370
     9
100
AcDbLine
 10
1616.777813337499
 20
106.634063069062
 30
0.0
 11
1612.463999974505
 21
110.08511375945
 31
0.0
  0
LINE
  5
40
330
2
100
AcDbEntity
  8
外枠
  6
Continuous
 48
100.0
370
     9
100
AcDbLine
 10
1616.777813337499
 20
106.634063069062
 30
0.0
 11
1612.463999974505
 21
103.183012378663
 31
0.0
  0
LINE
  5
41
330
2
100
AcDbEntity
  8
外枠
  6
Continuous
 48
100.0
370
     9
100
AcDbLine
 10
1616.777813337505
 20
113.5361644498489
 30
0.0
 11
1612.463999974505
 21
110.08511375945
 31
0.0
  0
LINE
  5
42
330
2
100
AcDbEntity
  8
外枠
  6
Continuous
 48
100.0
370
     9
100
AcDbLine
 10
1616.777813337499
 20
99.73196168827508
 30
0.0
 11
1612.463999974505
 21
103.183012378663
 31
0.0
  0
MTEXT
  5
43
330
2
100
AcDbEntity
  8
外枠
  6
Continuous
 48
100.0
370
     9
100
AcDbMText
 10
1520.476936402745
 20
137.4995509975779
 30
0.0
 40
20.0
 41
1015.1375
 71
     1
 72
     5
  1
31.5
 73
     1
 44
1.0
1001
ACAD
1000
MTEXTBEGIN
1070
    73
1070
     1
1070
    44
1040
1.0
1070
    74
1070
     0
1000
MTEXTEND
  0
MTEXT
  5
44
330
2
100
AcDbEntity
  8
外枠
  6
Continuous
 48
100.0
370
     9
100
AcDbMText
 10
1568.464698185987
 20
108.4136993179927
 30
0.0
 40
18.0
 41
25.456
 71
     1
 72
     5
  1
kg
 73
     1
 44
1.0
1001
ACAD
1000
MTEXTBEGIN
1070
    73
1070
     1
1070
    44
1040
1.0
1070
    74
1070
     0
1000
MTEXTEND
  0
LINE
  5
45
330
2
100
AcDbEntity
  8
外枠
  6
Continuous
 48
100.0
370
     9
100
AcDbLine
 10
1649.122643507042
 20
139.4120285854742
 30
0.0
 11
1653.436456870031
 21
135.9609778950862
 31
0.0
  0
LINE
  5
46
330
2
100
AcDbEntity
  8
外枠
  6
Continuous
 48
100.0
370
     9
100
AcDbLine
 10
1666.377896959009
 20
139.4120285854742
 30
0.0
 11
1662.06408359602
 21
135.9609778950862
 31
0.0
  0
MTEXT
  5
47
330
2
100
AcDbEntity
  8
外枠
  6
Continuous
 48
100.0
370
     9
100
AcDbMText
 10
1642.840555134189
 20
120.8184913847756
 30
0.0
 40
23.95393639053264
 41
23.85059431815661
 71
     1
 72
     5
  1
{\fＭＳ ゴシック|b0|i0|c128|p49;宝}
 73
     1
 44
1.0
1001
ACAD
1000
MTEXTBEGIN
1070
    73
1070
     1
1070
    44
1040
1.0
1070
    74
1070
     0
1000
MTEXTEND
  0
LINE
  5
48
330
2
100
AcDbEntity
  8
外枠
  6
Continuous
 48
100.0
370
     9
100
AcDbLine
 10
1662.06408359602
 20
135.9609778950862
 30
0.0
 11
1694.408913765557
 21
110.08511375945
 31
0.0
  0
LINE
  5
49
330
2
100
AcDbEntity
  8
外枠
  6
Continuous
 48
100.0
370
     9
100
AcDbLine
 10
1657.750270233026
 20
132.5099272046927
 30
0.0
 11
1690.095100402563
 21
106.634063069062
 31
0.0
  0
LINE
  5
4A
330
2
100
AcDbEntity
  8
外枠
  6
Continuous
 48
100.0
370
     9
100
AcDbLine
 10
1690.095100402563
 20
106.634063069062
 30
0.0
 11
1657.750270233026
 21
80.75819893343123
 31
0.0
  0
LINE
  5
4B
330
2
100
AcDbEntity
  8
外枠
  6
Continuous
 48
100.0
370
     9
100
AcDbLine
 10
1694.408913765557
 20
103.183012378663
 30
0.0
 11
1662.06408359602
 21
77.30714824303777
 31
0.0
  0
LINE
  5
4C
330
2
100
AcDbEntity
  8
外枠
  6
Continuous
 48
100.0
370
     9
100
AcDbLine
 10
1657.750270233026
 20
80.75819893342577
 30
0.0
 11
1625.405440063488
 21
106.634063069062
 31
0.0
  0
LINE
  5
4D
330
2
100
AcDbEntity
  8
外枠
  6
Continuous
 48
100.0
370
     9
100
AcDbLine
 10
1653.436456870031
 20
77.30714824303777
 30
0.0
 11
1621.0916267005
 21
103.183012378663
 31
0.0
  0
LINE
  5
4E
330
2
100
AcDbEntity
  8
外枠
  6
Continuous
 48
100.0
370
     9
100
AcDbLine
 10
1621.0916267005
 20
103.183012378663
 30
0.0
 11
1616.777813337505
 21
99.73196168827508
 31
0.0
  0
LINE
  5
4F
330
2
100
AcDbEntity
  8
外枠
  6
Continuous
 48
100.0
370
     9
100
AcDbLine
 10
1653.436456870031
 20
77.30714824303777
 30
0.0
 11
1649.122643507042
 21
73.85609755263885
 31
0.0
  0
LINE
  5
50
330
2
100
AcDbEntity
  8
外枠
  6
Continuous
 48
100.0
370
     9
100
AcDbLine
 10
1653.436456870031
 20
70.4050468622454
 30
0.0
 11
1649.122643507042
 21
73.85609755263885
 31
0.0
  0
LINE
  5
51
330
2
100
AcDbEntity
  8
外枠
  6
Continuous
 48
100.0
370
     9
100
AcDbLine
 10
1657.750270233026
 20
73.85609755263885
 30
0.0
 11
1653.436456870031
 21
70.4050468622454
 31
0.0
  0
LINE
  5
52
330
2
100
AcDbEntity
  8
外枠
  6
Continuous
 48
100.0
370
     9
100
AcDbLine
 10
1666.377896959009
 20
73.85609755263885
 30
0.0
 11
1662.06408359602
 21
70.4050468622454
 31
0.0
  0
LINE
  5
53
330
2
100
AcDbEntity
  8
外枠
  6
Continuous
 48
100.0
370
     9
100
AcDbLine
 10
1662.06408359602
 20
70.4050468622454
 30
0.0
 11
1657.750270233026
 21
73.85609755263885
 31
0.0
  0
LINE
  5
54
330
2
100
AcDbEntity
  8
外枠
  6
Continuous
 48
100.0
370
     9
100
AcDbLine
 10
1666.377896959009
 20
73.85609755263885
 30
0.0
 11
1662.06408359602
 21
77.30714824303777
 31
0.0
  0
LINE
  5
55
330
2
100
AcDbEntity
  8
外枠
  6
Continuous
 48
100.0
370
     9
100
AcDbLine
 10
1657.750270233026
 20
132.5099272046927
 30
0.0
 11
1625.405440063483
 21
106.634063069062
 31
0.0
  0
LINE
  5
56
330
2
100
AcDbEntity
  8
外枠
  6
Continuous
 48
100.0
370
     9
100
AcDbLine
 10
1653.436456870031
 20
135.9609778950862
 30
0.0
 11
1621.0916267005
 21
110.08511375945
 31
0.0
  0
LINE
  5
57
330
2
100
AcDbEntity
  8
外枠
  6
Continuous
 48
100.0
370
     9
100
AcDbLine
 10
1621.0916267005
 20
110.08511375945
 30
0.0
 11
1616.777813337505
 21
113.5361644498489
 31
0.0
  0
LINE
  5
58
330
2
100
AcDbEntity
  8
外枠
  6
Continuous
 48
100.0
370
     9
100
AcDbLine
 10
1694.408913765557
 20
103.183012378663
 30
0.0
 11
1698.722727128541
 21
99.73196168827508
 31
0.0
  0
LINE
  5
59
330
2
100
AcDbEntity
  8
外枠
  6
Continuous
 48
100.0
370
     9
100
AcDbLine
 10
1703.036540491541
 20
103.183012378663
 30
0.0
 11
1698.722727128541
 21
99.73196168827508
 31
0.0
  0
LINE
  5
5A
330
2
100
AcDbEntity
  8
外枠
  6
Continuous
 48
100.0
370
     9
100
AcDbLine
 10
1698.722727128541
 20
113.5361644498489
 30
0.0
 11
1694.408913765557
 21
110.08511375945
 31
0.0
  0
LINE
  5
5B
330
2
100
AcDbEntity
  8
外枠
  6
Continuous
 48
100.0
370
     9
100
AcDbLine
 10
1698.722727128541
 20
106.634063069062
 30
0.0
 11
1703.036540491541
 21
103.183012378663
 31
0.0
  0
LINE
  5
5C
330
2
100
AcDbEntity
  8
外枠
  6
Continuous
 48
100.0
370
     9
100
AcDbLine
 10
1698.722727128541
 20
113.5361644498489
 30
0.0
 11
1703.036540491541
 21
110.08511375945
 31
0.0
  0
LINE
  5
5D
330
2
100
AcDbEntity
  8
外枠
  6
Continuous
 48
100.0
370
     9
100
AcDbLine
 10
1703.036540491541
 20
110.08511375945
 30
0.0
 11
1698.722727128541
 21
106.634063069062
 31
0.0
  0
LINE
  5
5E
330
2
100
AcDbEntity
  8
外枠
  6
Continuous
 48
100.0
370
     9
100
AcDbLine
 10
1653.436456870031
 20
142.8630792758676
 30
0.0
 11
1649.122643507042
 21
139.4120285854742
 31
0.0
  0
LINE
  5
5F
330
2
100
AcDbEntity
  8
外枠
  6
Continuous
 48
100.0
370
     9
100
AcDbLine
 10
1662.06408359602
 20
142.8630792758676
 30
0.0
 11
1666.377896959009
 21
139.4120285854742
 31
0.0
  0
LINE
  5
60
330
2
100
AcDbEntity
  8
外枠
  6
Continuous
 48
100.0
370
     9
100
AcDbLine
 10
1653.436456870031
 20
142.8630792758676
 30
0.0
 11
1657.750270233026
 21
139.4120285854742
 31
0.0
  0
LINE
  5
61
330
2
100
AcDbEntity
  8
外枠
  6
Continuous
 48
100.0
370
     9
100
AcDbLine
 10
1662.06408359602
 20
142.8630792758676
 30
0.0
 11
1657.750270233026
 21
139.4120285854742
 31
0.0
  0
MTEXT
  5
62
330
2
100
AcDbEntity
  8
外枠
  6
Continuous
 48
100.0
370
     9
100
AcDbMText
 10
1982.246612759803
 20
141.5312822365363
 30
0.0
 40
50.0
 41
269.1378
 71
     1
 72
     5
  1
宝 機 材
 73
     1
 44
1.0
1001
ACAD
1000
MTEXTBEGIN
1070
    73
1070
     1
1070
    44
1040
1.0
1070
    74
1070
     0
1000
MTEXTEND
  0
LINE
  5
63
330
2
100
AcDbEntity
  8
外枠
  6
Continuous
 48
100.0
370
     9
100
AcDbLine
 10
2694.775480668144
 20
78.59726492113622
 30
0.0
 11
2729.639779322774
 21
43.73296626650699
 31
0.0
  0
LINE
  5
64
330
2
100
AcDbEntity
  8
外枠
  6
Continuous
 48
100.0
370
     9
100
AcDbLine
 10
2729.639779322774
 20
113.4615635757691
 30
0.0
 11
2694.775480668144
 21
78.59726492113622
 31
0.0
  0
LINE
  5
66
330
2
100
AcDbEntity
  8
外枠
  6
Continuous
 48
100.0
370
     9
100
AcDbLine
 10
2271.730765417811
 20
155.3992728207995
 30
0.0
 11
2271.730765417811
 21
10.0
 31
0.0
  0
LINE
  5
67
330
2
100
AcDbEntity
  8
外枠
  6
Continuous
 48
100.0
370
     9
100
AcDbLine
 10
2387.385592047314
 20
155.3992728207995
 30
0.0
 11
2387.385592047314
 21
9.999999999996362
 31
0.0
  0
MTEXT
  5
68
330
2
100
AcDbEntity
  8
外枠
  6
Continuous
 48
100.0
370
     9
100
AcDbMText
 10
2518.897970034654
 20
80.52451510381798
 30
0.0
 40
16.435188
 41
274.138099993296
 71
     1
 72
     5
  1
縮尺（A4用紙)
 73
     1
 44
1.0
1001
ACAD
1000
MTEXTBEGIN
1070
    73
1070
     1
1070
    44
1040
1.0
1070
    74
1070
     0
1000
MTEXTEND
  0
LINE
  5
69
330
2
100
AcDbEntity
  8
外枠
  6
Continuous
 48
100.0
370
     9
100
AcDbLine
 10
2503.04041867681
 20
155.3992728207995
 30
0.0
 11
2503.04041867681
 21
9.999999999996362
 31
0.0
  0
LINE
  5
6A
330
2
100
AcDbEntity
  8
外枠
  6
Continuous
 48
100.0
370
     9
100
AcDbLine
 10
2676.662359028593
 20
155.3992728207995
 30
0.0
 11
2676.662359028593
 21
10.0
 31
0.0
  0
MTEXT
  5
6B
330
2
100
AcDbEntity
  8
外枠
  6
Continuous
 48
100.0
370
     9
100
AcDbMText
 10
2557.587330290393
 20
42.24161905183791
 30
0.0
 40
23.47884
 41
274.138099993296
 71
     1
 72
     5
  1
1：10
 73
     1
 44
1.0
1001
ACAD
1000
MTEXTBEGIN
1070
    73
1070
     1
1070
    44
1040
1.0
1070
    74
1070
     0
1000
MTEXTEND
  0
MTEXT
  5
6C
330
2
100
AcDbEntity
  8
外枠
  6
Continuous
 48
100.0
370
     9
100
AcDbMText
 10
2280.290404386422
 20
149.5129012429788
 30
0.0
 40
18.783072
 41
274.13809060176
 71
     1
 72
     5
  1
Check
 73
     1
 44
1.0
1001
ACAD
1000
MTEXTBEGIN
1070
    73
1070
     1
1070
    44
1040
1.0
1070
    74
1070
     0
1000
MTEXTEND
  0
MTEXT
  5
6D
330
2
100
AcDbEntity
  8
外枠
  6
Continuous
 48
100.0
370
     9
100
AcDbMText
 10
2398.03460165154
 20
149.5129012429788
 30
0.0
 40
18.783072
 41
274.13809060176
 71
     1
 72
     5
  1
Draw
 73
     1
 44
1.0
1001
ACAD
1000
MTEXTBEGIN
1070
    73
1070
     1
1070
    44
1040
1.0
1070
    74
1070
     0
1000
MTEXTEND
  0
LINE
  5
6F
330
2
100
AcDbEntity
  8
外枠
  6
Continuous
 48
100.0
370
     9
100
AcDbLine
 10
2676.662359028593
 20
85.04752041039683
 30
0.0
 11
2503.04041867681
 21
85.04752041039683
 31
0.0
  0
MTEXT
  5
70
330
2
100
AcDbEntity
  8
外枠
  6
Continuous
 48
100.0
370
     9
100
AcDbMText
 10
2518.897970034654
 20
153.7304166203976
 30
0.0
 40
16.435188
 41
274.138099993296
 71
     1
 72
     5
  1
図面作成日
 73
     1
 44
1.0
1001
ACAD
1000
MTEXTBEGIN
1070
    73
1070
     1
1070
    44
1040
1.0
1070
    74
1070
     0
1000
MTEXTEND
  0
LINE
  5
72
330
2
100
AcDbEntity
  8
外枠
  6
Continuous
 48
100.0
370
     9
100
AcDbLine
 10
2729.639779322774
 20
43.73296626650699
 30
0.0
 11
2764.504077977396
 21
78.59726492113622
 31
0.0
  0
LINE
  5
73
330
2
100
AcDbEntity
  8
外枠
  6
Continuous
 48
100.0
370
     9
100
AcDbLine
 10
2764.504077977396
 20
78.59726492113622
 30
0.0
 11
2729.639779322774
 21
113.4615635757691
 31
0.0
  0
LINE
  5
7F
330
2
100
AcDbEntity
  8
本体
  6
Continuous
100
AcDbLine
 10
366.3149287844972
 20
1633.657346744574
 30
0.0
 11
1361.314928784497
 21
1633.657346744574
 31
0.0
  0
LINE
  5
81
330
2
100
AcDbEntity
  8
本体
  6
Continuous
100
AcDbLine
 10
366.3149287844972
 20
1629.157346744574
 30
0.0
 11
1361.314928784497
 21
1629.157346744574
 31
0.0
  0
LINE
  5
82
330
2
100
AcDbEntity
  8
本体
  6
Continuous
100
AcDbLine
 10
366.3149287844972
 20
1571.157346744574
 30
0.0
 11
1361.314928784497
 21
1571.157346744574
 31
0.0
  0
LINE
  5
83
330
2
100
AcDbEntity
  8
本体
  6
Continuous
100
AcDbLine
 10
366.3149287844972
 20
1566.157346744574
 30
0.0
 11
1361.314928784497
 21
1566.157346744574
 31
0.0
  0
LINE
  5
84
330
2
100
AcDbEntity
  8
本体
  6
Continuous
100
AcDbLine
 10
366.3149287844972
 20
1471.157346744574
 30
0.0
 11
1361.314928784497
 21
1471.157346744574
 31
0.0
  0
LINE
  5
85
330
2
100
AcDbEntity
  8
本体
  6
Continuous
100
AcDbLine
 10
366.3149287844972
 20
1466.157346744574
 30
0.0
 11
1361.314928784497
 21
1466.157346744574
 31
0.0
  0
LINE
  5
94
330
2
100
AcDbEntity
  8
本体
  6
Continuous
100
AcDbLine
 10
1937.251253091264
 20
1633.657346744574
 30
0.0
 11
1956.251253091264
 21
1633.657346744574
 31
0.0
  0
LINE
  5
95
330
2
100
AcDbEntity
  8
本体
  6
Continuous
100
AcDbLine
 10
1956.251253091264
 20
1633.657346744574
 30
0.0
 11
1956.251253091264
 21
1629.157346744574
 31
0.0
  0
LINE
  5
96
330
2
100
AcDbEntity
  8
本体
  6
Continuous
100
AcDbLine
 10
1962.251253091263
 20
1629.157346744574
 30
0.0
 11
1937.251253091264
 21
1629.157346744574
 31
0.0
  0
LINE
  5
97
330
2
100
AcDbEntity
  8
本体
  6
Continuous
100
AcDbLine
 10
1937.251253091264
 20
1629.157346744574
 30
0.0
 11
1937.251253091264
 21
1633.657346744574
 31
0.0
  0
LINE
  5
98
330
2
100
AcDbEntity
  8
本体
  6
Continuous
100
AcDbLine
 10
1962.251253091263
 20
1208.157346744574
 30
0.0
 11
1937.251253091264
 21
1208.157346744574
 31
0.0
  0
LINE
  5
99
330
2
100
AcDbEntity
  8
本体
  6
Continuous
100
AcDbLine
 10
1937.251253091264
 20
1203.657346744574
 30
0.0
 11
1956.251253091264
 21
1203.657346744574
 31
0.0
  0
LINE
  5
9A
330
2
100
AcDbEntity
  8
本体
  6
Continuous
100
AcDbLine
 10
1937.251253091264
 20
1208.157346744574
 30
0.0
 11
1937.251253091264
 21
1203.657346744574
 31
0.0
  0
LINE
  5
9B
330
2
100
AcDbEntity
  8
本体
  6
Continuous
100
AcDbLine
 10
1956.251253091264
 20
1203.657346744574
 30
0.0
 11
1956.251253091264
 21
1208.157346744574
 31
0.0
  0
LINE
  5
9C
330
2
100
AcDbEntity
  8
本体
  6
Continuous
100
AcDbLine
 10
1937.251253091264
 20
1629.157346744574
 30
0.0
 11
1937.251253091264
 21
1208.157346744574
 31
0.0
  0
LINE
  5
9D
330
2
100
AcDbEntity
  8
本体
  6
Continuous
100
AcDbLine
 10
1962.251253091263
 20
1629.157346744574
 30
0.0
 11
1962.251253091263
 21
1208.157346744574
 31
0.0
  0
DIMENSION
  5
BE
330
2
100
AcDbEntity
  8
寸法線
  6
Continuous
100
AcDbDimension
  2
*D3
 10
1777.251253091263
 20
1203.657346744574
 30
0.0
 11
1757.251253091263
 21
1418.657346744575
 31
0.0
 70
    32
 71
     5
 42
430.0
  3
ISO-25
100
AcDbAlignedDimension
 13
1937.251253091264
 23
1633.657346744574
 33
0.0
 14
1937.251253091264
 24
1203.657346744574
 34
0.0
 50
90.0
100
AcDbRotatedDimension
  0
DIMENSION
  5
D3
330
2
100
AcDbEntity
  8
寸法線
  6
Continuous
100
AcDbDimension
  2
*D4
 10
1857.251253091263
 20
1468.657346744574
 30
0.0
 11
1837.251253091263
 21
1518.657346744575
 31
0.0
 70
    32
 71
     5
 42
100.0
  3
ISO-25
100
AcDbAlignedDimension
 13
1934.251253091263
 23
1568.657346744574
 33
0.0
 14
1934.251253091263
 24
1468.657346744574
 34
0.0
 50
90.0
100
AcDbRotatedDimension
  0
DIMENSION
  5
E0
330
2
100
AcDbEntity
  8
寸法線
  6
Continuous
100
AcDbDimension
  2
*D5
 10
2117.251255091264
 20
1213.657345744574
 30
0.0
 11
2097.251255091263
 21
1418.657346744575
 31
0.0
 70
    32
 71
     5
 42
410.0000019999997
  3
ISO-25
100
AcDbAlignedDimension
 13
2029.251250091264
 23
1623.657347744574
 33
0.0
 14
2029.251250091264
 24
1213.657345744574
 34
0.0
 50
90.0
100
AcDbRotatedDimension
  0
LINE
  5
ED
330
2
100
AcDbEntity
  8
嵩上断面
  6
Continuous
100
AcDbLine
 10
368.8149287844972
 20
659.666529050138
 30
0.0
 11
368.8149287844972
 21
589.666529050138
 31
0.0
  0
LINE
  5
EE
102
{ACAD_REACTORS
330
587
102
}
330
2
100
AcDbEntity
  8
嵩上断面
  6
Continuous
100
AcDbLine
 10
368.8149287844972
 20
589.666529050138
 30
0.0
 11
1358.814928784497
 21
589.666529050138
 31
0.0
  0
LINE
  5
EF
330
2
100
AcDbEntity
  8
嵩上断面
  6
Continuous
100
AcDbLine
 10
1358.814928784497
 20
589.666529050138
 30
0.0
 11
1358.814928784497
 21
659.666529050138
 31
0.0
  0
LINE
  5
F0
330
2
100
AcDbEntity
  8
嵩上断面
  6
Continuous
100
AcDbLine
 10
1358.814928784497
 20
659.666529050138
 30
0.0
 11
368.8149287844972
 21
659.666529050138
 31
0.0
  0
LINE
  5
F1
330
2
100
AcDbEntity
  8
嵩上断面
  6
HIDDEN
 48
2.0
100
AcDbLine
 10
1358.814928784497
 20
657.3665290501377
 30
0.0
 11
368.8149287844972
 21
657.3665290501377
 31
0.0
  0
LINE
  5
F3
330
2
100
AcDbEntity
  8
嵩上断面
  6
HIDDEN
 48
2.0
100
AcDbLine
 10
368.8149287844972
 20
591.9665290501378
 30
0.0
 11
1358.814928784497
 21
591.9665290501378
 31
0.0
  0
DIMENSION
  5
F8
330
2
100
AcDbEntity
  8
寸法線
  6
Continuous
100
AcDbDimension
  2
*D6
 10
1196.549104384496
 20
764.666529050138
 30
0.0
 11
1267.488190678913
 21
784.666529050138
 31
0.0
 70
    32
  1
12.5
 71
     5
 42
12.53164560000004
  3
ISO-25
100
AcDbAlignedDimension
 13
1184.017458784496
 23
684.666529050138
 33
0.0
 14
1196.549104384496
 24
684.666529050138
 34
0.0
100
AcDbRotatedDimension
  0
DIMENSION
  5
107
330
2
100
AcDbEntity
  8
寸法線
  6
Continuous
100
AcDbDimension
  2
*D7
 10
1358.814928784497
 20
504.666529050138
 30
0.0
 11
863.8149287844971
 21
524.666529050138
 31
0.0
 70
    32
 71
     5
 42
990.0
  3
ISO-25
100
AcDbAlignedDimension
 13
368.8149287844972
 23
584.666529050138
 33
0.0
 14
1358.814928784497
 24
584.666529050138
 34
0.0
100
AcDbRotatedDimension
  0
DIMENSION
  5
114
330
2
100
AcDbEntity
  8
寸法線
  6
Continuous
100
AcDbDimension
  2
*D8
 10
1471.314926784496
 20
684.666529050138
 30
0.0
 11
1451.314926784496
 21
737.1030772734884
 31
0.0
 70
    32
 71
     5
 42
25.0
  3
ISO-25
100
AcDbAlignedDimension
 13
1358.814928784497
 23
659.666529050138
 33
0.0
 14
1358.814931184497
 24
684.666529050138
 34
0.0
 50
90.0
100
AcDbRotatedDimension
  0
DIMENSION
  5
123
330
2
100
AcDbEntity
  8
寸法線
  6
Continuous
100
AcDbDimension
  2
*D9
 10
1471.314926784496
 20
589.666529050138
 30
0.0
 11
1451.314926784496
 21
624.6665290501383
 31
0.0
 70
    32
 71
     5
 42
70.0
  3
ISO-25
100
AcDbAlignedDimension
 13
1358.814928784497
 23
659.666529050138
 33
0.0
 14
1358.814928784497
 24
589.666529050138
 34
0.0
 50
90.0
100
AcDbRotatedDimension
  0
DIMENSION
  5
130
330
2
100
AcDbEntity
  8
寸法線
  6
Continuous
100
AcDbDimension
  2
*D10
 10
1551.314926784496
 20
584.666529050138
 30
0.0
 11
1531.314926784496
 21
634.6665290501382
 31
0.0
 70
    32
 71
     5
 42
100.0
  3
ISO-25
100
AcDbAlignedDimension
 13
1358.814931184497
 23
684.666529050138
 33
0.0
 14
1358.814928784497
 24
584.666529050138
 34
0.0
 50
90.0
100
AcDbRotatedDimension
  0
LEADER
  5
13D
330
2
100
AcDbEntity
  8
寸法線
  6
Continuous
100
AcDbLeader
  3
ISO-25
 73
     0
 74
     0
 75
     1
 40
30.0
 41
171.1675126903553
 76
     3
 10
1360.075550122978
 20
1633.657346744574
 30
0.0
 10
1415.786228241632
 20
1704.868024863229
 30
0.0
 10
1430.786228241633
 20
1704.868024863229
 30
0.0
340
13E
1001
ACAD
1000
DSTYLE
1002
{
1070
     5
1000
OPEN30
1070
    77
1070
     1
1070
   147
1040
0.5
1070
   342
1005
C0
1002
}
  0
MTEXT
  5
13E
102
{ACAD_REACTORS
330
13D
102
}
330
2
100
AcDbEntity
  8
寸法線
  6
Continuous
100
AcDbMText
 10
1435.786228241633
 20
1709.868024863229
 30
0.0
 40
30.0
 41
0.0
 71
     7
 72
     1
  1
FB4.5\U+00D719
 73
     1
 44
1.0
1001
ACAD
1000
MTEXTBEGIN
1070
    73
1070
     1
1070
    44
1040
1.0
1070
    74
1070
     0
1000
MTEXTEND
  0
LEADER
  5
13F
330
2
100
AcDbEntity
  8
寸法線
  6
Continuous
100
AcDbLeader
  3
ISO-25
 73
     0
 74
     0
 75
     1
 40
31.82741116751269
 41
385.4314720812182
 76
     3
 10
1997.251250091263
 20
1623.657347744574
 30
0.0
 10
2057.961927209919
 20
1704.368024863229
 30
0.0
 10
2072.961927209919
 20
1704.368024863229
 30
0.0
340
140
1001
ACAD
1000
DSTYLE
1002
{
1070
     5
1000
OPEN30
1070
    77
1070
     1
1070
   147
1040
0.5
1070
   342
1005
C0
1002
}
  0
MTEXT
  5
140
102
{ACAD_REACTORS
330
13F
102
}
330
2
100
AcDbEntity
  8
寸法線
  6
Continuous
100
AcDbMText
 10
2077.961927209919
 20
1709.368024863229
 30
0.0
 40
30.0
 41
0.0
 71
     7
 72
     1
  1
P2.3\U+00D770\U+00D740+HGRゴム
 73
     1
 44
1.0
1001
ACAD
1000
MTEXTBEGIN
1070
    73
1070
     1
1070
    44
1040
1.0
1070
    74
1070
     0
1000
MTEXTEND
  0
LINE
  5
141
330
2
100
AcDbEntity
  8
中心線
  6
Continuous
100
AcDbLine
 10
1184.017458784496
 20
692.666529050138
 30
0.0
 11
1184.017458784497
 21
651.6665290501379
 31
0.0
  0
LINE
  5
142
330
2
100
AcDbEntity
  8
中心線
  6
Continuous
100
AcDbLine
 10
1196.549104384496
 20
692.666529050138
 30
0.0
 11
1196.549104384497
 21
651.6665290501379
 31
0.0
  0
LINE
  5
147
330
2
100
AcDbEntity
  8
本体
  6
CENTER
 62
     1
 48
0.3
100
AcDbLine
 10
1944.750953091263
 20
1568.657346744574
 30
0.0
 11
1934.751353091264
 21
1568.657346744574
 31
0.0
  0
LINE
  5
149
330
2
100
AcDbEntity
  8
本体
  6
CENTER
 62
     1
 48
0.3
100
AcDbLine
 10
1939.751153091263
 20
1573.657146744574
 30
0.0
 11
1939.751153091263
 21
1563.657546744574
 31
0.0
  0
CIRCLE
  5
14A
330
2
100
AcDbEntity
  8
本体
  6
Continuous
 62
     0
100
AcDbCircle
 10
1939.751153091263
 20
1568.657346744574
 30
0.0
 40
2.4999
  0
LWPOLYLINE
  5
14B
330
2
100
AcDbEntity
  8
本体
  6
Continuous
100
AcDbPolyline
 90
        4
 70
     1
 43
0.0
 10
366.3149287844972
 20
684.666529050138
 10
369.3149287844972
 20
684.666529050138
 10
369.3149287844972
 20
659.666529050138
 10
366.3149287844972
 20
659.666529050138
  0
LWPOLYLINE
  5
2D2
330
2
100
AcDbEntity
  8
本体
  6
Continuous
100
AcDbPolyline
 90
        4
 70
     1
 43
0.0
 10
1358.314926784496
 20
684.666529050138
 10
1361.314926784496
 20
684.666529050138
 10
1361.314926784496
 20
659.666529050138
 10
1358.314926784496
 20
659.666529050138
  0
LINE
  5
36F
330
2
100
AcDbEntity
  8
本体
  6
Continuous
100
AcDbLine
 10
1348.757964784497
 20
679.666529050138
 30
0.0
 11
1358.314926784496
 21
679.666529050138
 31
0.0
  0
LINE
  5
370
330
2
100
AcDbEntity
  8
本体
  6
Continuous
100
AcDbLine
 10
1348.757964784497
 20
684.666529050138
 30
0.0
 11
1358.314926784496
 21
684.666529050138
 31
0.0
  0
DIMENSION
  5
371
330
2
100
AcDbEntity
  8
寸法線
  6
Continuous
100
AcDbDimension
  2
*D11
 10
366.3149287844972
 20
844.666529050138
 30
0.0
 11
863.8149277844968
 21
864.6665290501379
 31
0.0
 70
    32
 71
     5
 42
994.9999979999994
  3
ISO-25
100
AcDbAlignedDimension
 13
1361.314926784496
 23
684.666529050138
 33
0.0
 14
366.3149287844972
 24
684.666529050138
 34
0.0
100
AcDbRotatedDimension
  0
LINE
  5
37E
330
2
100
AcDbEntity
  8
本体
  6
Continuous
100
AcDbLine
 10
366.3149287844972
 20
1366.157346744574
 30
0.0
 11
1361.314928784497
 21
1366.157346744574
 31
0.0
  0
LINE
  5
37F
330
2
100
AcDbEntity
  8
本体
  6
Continuous
100
AcDbLine
 10
366.3149287844972
 20
1371.157346744574
 30
0.0
 11
1361.314928784497
 21
1371.157346744574
 31
0.0
  0
LINE
  5
422
330
2
100
AcDbEntity
  8
本体
  6
Continuous
100
AcDbLine
 10
366.3149287844972
 20
1266.157346744574
 30
0.0
 11
1361.314928784497
 21
1266.157346744574
 31
0.0
  0
LINE
  5
423
330
2
100
AcDbEntity
  8
本体
  6
Continuous
100
AcDbLine
 10
366.3149287844972
 20
1271.157346744574
 30
0.0
 11
1361.314928784497
 21
1271.157346744574
 31
0.0
  0
LINE
  5
4C6
330
2
100
AcDbEntity
  8
本体
  6
Continuous
100
AcDbLine
 10
366.3149287844972
 20
1203.657346744574
 30
0.0
 11
1361.314928784497
 21
1203.657346744574
 31
0.0
  0
LINE
  5
4C7
330
2
100
AcDbEntity
  8
本体
  6
Continuous
100
AcDbLine
 10
366.3149287844972
 20
1208.157346744574
 30
0.0
 11
1361.314928784497
 21
1208.157346744574
 31
0.0
  0
LINE
  5
56A
330
2
100
AcDbEntity
  8
本体
  6
CENTER
 62
     1
 48
0.3
100
AcDbLine
 10
1944.750953091263
 20
1468.657346744574
 30
0.0
 11
1934.751353091264
 21
1468.657346744574
 31
0.0
  0
LINE
  5
56B
330
2
100
AcDbEntity
  8
本体
  6
CENTER
 62
     1
 48
0.3
100
AcDbLine
 10
1939.751153091263
 20
1473.657146744574
 30
0.0
 11
1939.751153091263
 21
1463.657546744574
 31
0.0
  0
CIRCLE
  5
56C
330
2
100
AcDbEntity
  8
本体
  6
Continuous
 62
     0
100
AcDbCircle
 10
1939.751153091263
 20
1468.657346744574
 30
0.0
 40
2.4999
  0
LINE
  5
56D
330
2
100
AcDbEntity
  8
本体
  6
CENTER
 62
     1
 48
0.3
100
AcDbLine
 10
1944.750953091263
 20
1368.657346744574
 30
0.0
 11
1934.751353091264
 21
1368.657346744574
 31
0.0
  0
LINE
  5
56E
330
2
100
AcDbEntity
  8
本体
  6
CENTER
 62
     1
 48
0.3
100
AcDbLine
 10
1939.751153091263
 20
1373.657146744574
 30
0.0
 11
1939.751153091263
 21
1363.657546744574
 31
0.0
  0
CIRCLE
  5
56F
330
2
100
AcDbEntity
  8
本体
  6
Continuous
 62
     0
100
AcDbCircle
 10
1939.751153091263
 20
1368.657346744574
 30
0.0
 40
2.4999
  0
LINE
  5
570
330
2
100
AcDbEntity
  8
本体
  6
CENTER
 62
     1
 48
0.3
100
AcDbLine
 10
1944.750953091263
 20
1268.657346744574
 30
0.0
 11
1934.751353091264
 21
1268.657346744574
 31
0.0
  0
LINE
  5
571
330
2
100
AcDbEntity
  8
本体
  6
CENTER
 62
     1
 48
0.3
100
AcDbLine
 10
1939.751153091263
 20
1273.657146744574
 30
0.0
 11
1939.751153091263
 21
1263.657546744574
 31
0.0
  0
CIRCLE
  5
572
330
2
100
AcDbEntity
  8
本体
  6
Continuous
 62
     0
100
AcDbCircle
 10
1939.751153091263
 20
1268.657346744574
 30
0.0
 40
2.4999
  0
DIMENSION
  5
575
330
2
100
AcDbEntity
  8
寸法線
  6
Continuous
100
AcDbDimension
  2
*D12
 10
1471.314926784496
 20
584.666529050138
 30
0.0
 11
1451.314926784496
 21
541.9000315882093
 31
0.0
 70
    32
 71
     5
 42
5.0
  3
ISO-25
100
AcDbAlignedDimension
 13
1358.814928784497
 23
589.666529050138
 33
0.0
 14
1358.814928784497
 24
584.666529050138
 34
0.0
 50
90.0
100
AcDbRotatedDimension
  0
LINE
  5
584
102
{ACAD_REACTORS
330
587
102
}
330
2
100
AcDbEntity
  8
ゴム
  6
Continuous
100
AcDbLine
 10
368.8149287844972
 20
589.666529050138
 30
0.0
 11
368.8149287844972
 21
584.666529050138
 31
0.0
  0
LINE
  5
585
102
{ACAD_REACTORS
330
587
102
}
330
2
100
AcDbEntity
  8
ゴム
  6
Continuous
100
AcDbLine
 10
368.8149287844972
 20
584.666529050138
 30
0.0
 11
1358.814928784497
 21
584.666529050138
 31
0.0
  0
LINE
  5
586
102
{ACAD_REACTORS
330
587
102
}
330
2
100
AcDbEntity
  8
ゴム
  6
Continuous
100
AcDbLine
 10
1358.814928784497
 20
584.666529050138
 30
0.0
 11
1358.814928784497
 21
589.666529050138
 31
0.0
  0
HATCH
  5
587
330
2
100
AcDbEntity
  8
ゴム
  6
Continuous
100
AcDbHatch
 10
0.0
 20
0.0
 30
0.0
210
0.0
220
0.0
230
1.0
  2
ANSI31
 70
     0
 71
     1
 91
        1
 92
        1
 93
        4
 72
     1
 10
1358.814928784497
 20
584.666529050138
 11
1358.814928784497
 21
589.666529050138
 72
     1
 10
1358.814928784497
 20
589.666529050138
 11
368.8149287844972
 21
589.666529050138
 72
     1
 10
368.8149287844972
 20
589.666529050138
 11
368.8149287844972
 21
584.666529050138
 72
     1
 10
368.8149287844972
 20
584.666529050138
 11
1358.814928784497
 21
584.666529050138
 97
        4
330
586
330
EE
330
584
330
585
 75
     0
 76
     1
 52
0.0
 41
1.0
 77
     0
 78
     1
 53
45.0
 43
-108.0029948863484
 44
114.0211625659299
 45
-2.245064030267287
 46
2.245064030267288
 79
     0
 98
        1
 10
-108.0029948863484
 20
114.0211625659299
  0
LINE
  5
65A
330
2
100
AcDbEntity
  8
本体
  6
Continuous
100
AcDbLine
 10
1348.757964784497
 20
679.666529050138
 30
0.0
 11
1358.314926784496
 21
684.666529050138
 31
0.0
  0
INSERT
  5
169C
330
2
100
AcDbEntity
  8
ゴム
  6
Continuous
100
AcDbBlockReference
  2
平ゴムパッキン
 10
2029.251250091264
 20
1623.657347744574
 30
0.0
  0
INSERT
  5
16AE
330
2
100
AcDbEntity
  8
ゴム
  6
Continuous
100
AcDbBlockReference
  2
平ゴムパッキン
 10
2029.251250091264
 20
1213.657345744574
 30
0.0
 41
-1.0
 50
180.0
  0
LINE
  5
1710
330
2
100
AcDbEntity
  8
嵩上平面
  6
HIDDEN
 48
3.0
370
     9
100
AcDbLine
 10
368.8149287844972
 20
1623.657347744574
 30
0.0
 11
1358.814928784497
 21
1623.657347744574
 31
0.0
  0
LINE
  5
1711
330
2
100
AcDbEntity
  8
嵩上平面
  6
HIDDEN
 48
3.0
370
     9
100
AcDbLine
 10
368.8149287844972
 20
1583.657347744574
 30
0.0
 11
1358.814928784497
 21
1583.657347744574
 31
0.0
  0
LINE
  5
1712
330
2
100
AcDbEntity
  8
嵩上平面
  6
HIDDEN
 48
3.0
370
     9
100
AcDbLine
 10
368.8149287844972
 20
1253.657345744574
 30
0.0
 11
1358.814928784497
 21
1253.657345744574
 31
0.0
  0
LINE
  5
1713
330
2
100
AcDbEntity
  8
嵩上平面
  6
HIDDEN
 48
3.0
370
     9
100
AcDbLine
 10
368.8149287844972
 20
1213.657345744574
 30
0.0
 11
1358.814928784497
 21
1213.657345744574
 31
0.0
  0
LINE
  5
1714
330
2
100
AcDbEntity
  8
嵩上平面
  6
HIDDEN
 48
3.0
370
     9
100
AcDbLine
 10
1358.814928784497
 20
1623.657347744574
 30
0.0
 11
1358.814928784497
 21
1583.657347744574
 31
0.0
  0
LINE
  5
1715
330
2
100
AcDbEntity
  8
嵩上平面
  6
HIDDEN
 48
3.0
370
     9
100
AcDbLine
 10
368.8149287844972
 20
1213.657345744574
 30
0.0
 11
368.8149287844972
 21
1253.657345744574
 31
0.0
  0
LINE
  5
1716
330
2
100
AcDbEntity
  8
嵩上平面
  6
HIDDEN
 48
3.0
370
     9
100
AcDbLine
 10
1358.814928784497
 20
1253.657345744574
 30
0.0
 11
1358.814928784497
 21
1213.657345744574
 31
0.0
  0
LINE
  5
1717
330
2
100
AcDbEntity
  8
嵩上平面
  6
HIDDEN
 48
3.0
370
     9
100
AcDbLine
 10
368.8149287844972
 20
1583.657347744574
 30
0.0
 11
368.8149287844972
 21
1623.657347744574
 31
0.0
  0
MTEXT
  5
189C
330
2
100
AcDbEntity
  8
外枠
  6
Continuous
 48
100.0
370
     9
100
AcDbMText
 10
1038.975343934131
 20
43.7816999552906
 30
0.0
 40
25.0
 41
122.0406
 71
     1
 72
     5
  1
SS400
 73
     1
 44
1.0
1001
ACAD
1000
MTEXTBEGIN
1070
    73
1070
     1
1070
    44
1040
1.0
1070
    74
1070
     0
1000
MTEXTEND
  0
MTEXT
  5
189D
330
2
100
AcDbEntity
  8
外枠
  6
Continuous
 48
100.0
370
     9
100
AcDbMText
 10
1202.677957061338
 20
120.1377642323778
 30
0.0
 40
25.0
 41
1015.1375
 71
     1
 72
     5
  1
溶融亜鉛めっき仕上
 73
     1
 44
1.0
1001
ACAD
1000
MTEXTBEGIN
1070
    73
1070
     1
1070
    44
1040
1.0
1070
    74
1070
     0
1000
MTEXTEND
  0
MTEXT
  5
189F
330
2
100
AcDbEntity
  8
外枠
  6
Continuous
 48
100.0
370
     9
100
AcDbMText
 10
1159.385398923399
 20
148.6111115828462
 30
0.0
 40
20.0
 41
1015.1375
 71
     1
 72
     5
  1
表\P面\P処\P理
 73
     1
 44
1.0
1001
ACAD
1000
MTEXTBEGIN
1070
    73
1070
     1
1070
    44
1040
1.0
1070
    74
1070
     0
1000
MTEXTEND
  0
LINE
  5
18A0
330
2
100
AcDbEntity
  8
外枠
  6
Continuous
 48
100.0
370
     9
100
AcDbLine
 10
1188.531791166651
 20
155.3992728207959
 30
0.0
 11
1188.531791166651
 21
9.999999999992724
 31
0.0
  0
LINE
  5
18A1
330
2
100
AcDbEntity
  8
外枠
  6
Continuous
 48
100.0
370
     9
100
AcDbLine
 10
1153.531306970095
 20
155.3992728207959
 30
0.0
 11
1153.531306970095
 21
9.999999999992724
 31
0.0
  0
LINE
  5
18A2
330
2
100
AcDbEntity
  8
外枠
 48
3.0
100
AcDbLine
 10
1188.531791166651
 20
82.6996364103943
 30
0.0
 11
1593.951336296073
 21
82.6996364103943
 31
0.0
  0
LINE
  5
194D
330
2
100
AcDbEntity
  8
本体
  6
Continuous
100
AcDbLine
 10
1348.757964784497
 20
665.666529050138
 30
0.0
 11
1358.314926784496
 21
665.666529050138
 31
0.0
  0
INSERT
  5
1ACC
330
2
100
AcDbEntity
  8
嵩上断面
 48
3.0
100
AcDbBlockReference
  2
P-H70
 10
1962.251253091263
 20
1623.657347744574
 30
0.0
  0
INSERT
  5
1ACD
330
2
100
AcDbEntity
  8
嵩上断面
 48
3.0
100
AcDbBlockReference
  2
P-H70
 10
1962.251253091263
 20
1213.657345744574
 30
0.0
 41
-1.0
 50
180.0
  0
MTEXT
  5
1B67
330
2
100
AcDbEntity
  8
外枠
  6
Continuous
100
AcDbMText
 10
2427.938927859905
 20
67.25039165302224
 30
0.0
 40
28.17460800000001
 41
43.8527
 71
     1
 72
     5
  1
{\fHG正楷書体-PRO|b0|i0|c128|p65;水}
 73
     1
 44
1.0
1001
ACAD
1000
MTEXTBEGIN
1070
    73
1070
     1
1070
    44
1040
1.0
1070
    74
1070
     0
1000
MTEXTEND
  0
MTEXT
  5
1B68
330
2
100
AcDbEntity
  8
外枠
  6
Continuous
100
AcDbMText
 10
2427.938927859905
 20
109.7804165221496
 30
0.0
 40
28.17460800000001
 41
43.8527
 71
     1
 72
     5
  1
{\fHG正楷書体-PRO|b0|i0|c128|p65;清}
 73
     1
 44
1.0
1001
ACAD
1000
MTEXTBEGIN
1070
    73
1070
     1
1070
    44
1040
1.0
1070
    74
1070
     0
1000
MTEXTEND
  0
ELLIPSE
  5
1B69
330
2
100
AcDbEntity
  8
外枠
  6
Continuous
100
AcDbEllipse
 10
2449.066278910865
 20
70.80064248893541
 30
0.0
 11
0.0
 21
-47.8594442149426
 31
0.0
210
0.0
220
0.0
230
1.0
 40
0.7999999999999857
 41
0.0
 42
6.283185307179586
  0
MTEXT
  5
1C42
330
2
100
AcDbEntity
  8
外枠
  6
Continuous
 48
100.0
370
     9
100
AcDbMText
 10
2509.985545378613
 20
121.2206105686568
 30
0.0
 40
23.47884
 41
274.1381
 71
     1
 72
     5
  1
'14・09・01
 73
     1
 44
1.0
1001
ACAD
1000
MTEXTBEGIN
1070
    73
1070
     1
1070
    44
1040
1.0
1070
    74
1070
     0
1000
MTEXTEND
  0
INSERT
  5
1C43
330
2
100
AcDbEntity
  8
外枠
 48
3.0
100
AcDbBlockReference
  2
鎌下
 10
2271.730765417811
 20
155.3992728207995
 30
0.0
  0
MTEXT
  5
1DBA
330
2
100
AcDbEntity
  8
外枠
  6
Continuous
 48
100.0
370
     9
100
AcDbMText
 10
515.4925659588971
 20
136.1535564242108
 30
0.0
 40
29.0
 41
664.6118999999999
 71
     1
 72
     5
  1
細目国土交通省タイプ用グレーチング
 73
     1
 44
1.0
1001
ACAD
1000
MTEXTBEGIN
1070
    73
1070
     1
1070
    44
1040
1.0
1070
    74
1070
     0
1000
MTEXTEND
  0
MTEXT
  5
1DBB
330
2
100
AcDbEntity
  8
外枠
  6
Continuous
 48
100.0
370
     9
100
AcDbMText
 10
1022.193186254242
 20
77.61017986570005
 30
0.0
 40
18.0
 41
122.0406
 71
     1
 72
     5
  1
【主部材】
 73
     1
 44
1.0
1001
ACAD
1000
MTEXTBEGIN
1070
    73
1070
     1
1070
    44
1040
1.0
1070
    74
1070
     0
1000
MTEXTEND
  0
MTEXT
  5
1DBC
330
2
100
AcDbEntity
  8
外枠
  6
Continuous
 48
100.0
370
     9
100
AcDbMText
 10
1199.761738767627
 20
151.0819879350613
 30
0.0
 40
18.0
 41
301.8661
 71
     1
 72
     5
  1
【グレーチング】JIS　H8641
 73
     1
 44
1.0
1001
ACAD
1000
MTEXTBEGIN
1070
    73
1070
     1
1070
    44
1040
1.0
1070
    74
1070
     0
1000
MTEXTEND
  0
INSERT
  5
1E18
330
2
100
AcDbEntity
  8
本体
 48
3.0
100
AcDbBlockReference
  2
GFB新
 10
2774.219625023061
 20
166.6250408207972
 30
0.0
  0
INSERT
  5
1E2D
102
{ACAD_REACTORS
330
1E3E
102
}
330
2
100
AcDbEntity
  8
本体
100
AcDbBlockReference
  2
*U17
 10
375.593409784497
 20
672.166529050138
 30
0.0
  0
LINE
  5
1E8F
330
2
100
AcDbEntity
  8
本体
  6
Continuous
100
AcDbLine
 10
1361.314928784497
 20
1629.157346744574
 30
0.0
 11
1361.314928784497
 21
1571.157346744574
 31
0.0
  0
LINE
  5
1E90
330
2
100
AcDbEntity
  8
本体
  6
Continuous
100
AcDbLine
 10
1358.314928784497
 20
1629.157346744574
 30
0.0
 11
1358.314928784497
 21
1571.157346744574
 31
0.0
  0
LINE
  5
1E91
330
2
100
AcDbEntity
  8
本体
  6
Continuous
100
AcDbLine
 10
1361.314928784497
 20
1566.157346744574
 30
0.0
 11
1361.314928784497
 21
1471.157346744574
 31
0.0
  0
LINE
  5
1E92
330
2
100
AcDbEntity
  8
本体
  6
Continuous
100
AcDbLine
 10
1358.314928784497
 20
1566.157346744574
 30
0.0
 11
1358.314928784497
 21
1471.157346744574
 31
0.0
  0
LINE
  5
1E93
330
2
100
AcDbEntity
  8
本体
  6
Continuous
100
AcDbLine
 10
1358.314928784497
 20
1466.157346744574
 30
0.0
 11
1358.314928784497
 21
1371.157346744574
 31
0.0
  0
LINE
  5
1E94
330
2
100
AcDbEntity
  8
本体
  6
Continuous
100
AcDbLine
 10
1361.314928784497
 20
1466.157346744574
 30
0.0
 11
1361.314928784497
 21
1371.157346744574
 31
0.0
  0
LINE
  5
1E95
330
2
100
AcDbEntity
  8
本体
  6
Continuous
100
AcDbLine
 10
1358.314928784497
 20
1366.157346744574
 30
0.0
 11
1358.314928784497
 21
1271.157346744574
 31
0.0
  0
LINE
  5
1E96
330
2
100
AcDbEntity
  8
本体
  6
Continuous
100
AcDbLine
 10
1361.314928784497
 20
1366.157346744574
 30
0.0
 11
1361.314928784497
 21
1271.157346744574
 31
0.0
  0
LINE
  5
1E97
330
2
100
AcDbEntity
  8
本体
  6
Continuous
100
AcDbLine
 10
1361.314928784497
 20
1208.157346744574
 30
0.0
 11
1361.314928784497
 21
1266.157346744574
 31
0.0
  0
LINE
  5
1E98
330
2
100
AcDbEntity
  8
本体
  6
Continuous
100
AcDbLine
 10
1358.314928784497
 20
1208.157346744574
 30
0.0
 11
1358.314928784497
 21
1266.157346744574
 31
0.0
  0
LINE
  5
1E99
330
2
100
AcDbEntity
  8
本体
  6
Continuous
100
AcDbLine
 10
1345.757966784497
 20
1566.157346744574
 30
0.0
 11
1358.314928784497
 21
1571.157346744574
 31
0.0
  0
LINE
  5
1E9A
330
2
100
AcDbEntity
  8
本体
  6
Continuous
100
AcDbLine
 10
1345.757966784497
 20
1466.157346744574
 30
0.0
 11
1358.314928784497
 21
1471.157346744574
 31
0.0
  0
LINE
  5
1E9B
330
2
100
AcDbEntity
  8
本体
  6
Continuous
100
AcDbLine
 10
1345.757966784497
 20
1366.157346744574
 30
0.0
 11
1358.314928784497
 21
1371.157346744574
 31
0.0
  0
LINE
  5
1E9C
330
2
100
AcDbEntity
  8
本体
  6
Continuous
100
AcDbLine
 10
1345.757966784497
 20
1266.157346744574
 30
0.0
 11
1358.314928784497
 21
1271.157346744574
 31
0.0
  0
LINE
  5
1E9D
330
2
100
AcDbEntity
  8
エンボス
  6
Continuous
100
AcDbLine
 10
1361.314928814497
 20
1576.657346744574
 30
0.0
 11
1358.314928814497
 21
1577.857346744574
 31
0.0
  0
LINE
  5
1E9E
330
2
100
AcDbEntity
  8
エンボス
  6
Continuous
100
AcDbLine
 10
1361.314928814497
 20
1604.657346744574
 30
0.0
 11
1358.314928814497
 21
1605.857346744574
 31
0.0
  0
LINE
  5
1E9F
330
2
100
AcDbEntity
  8
エンボス
  6
Continuous
100
AcDbLine
 10
1358.314928814497
 20
1608.857346744574
 30
0.0
 11
1361.314928814497
 21
1610.057346744574
 31
0.0
  0
LINE
  5
1EA0
330
2
100
AcDbEntity
  8
エンボス
  6
Continuous
100
AcDbLine
 10
1358.314928814497
 20
1596.857346744574
 30
0.0
 11
1361.314928814497
 21
1595.657346744574
 31
0.0
  0
LINE
  5
1EA1
330
2
100
AcDbEntity
  8
エンボス
  6
Continuous
100
AcDbLine
 10
1361.314928814497
 20
1591.057346744574
 30
0.0
 11
1358.314928814497
 21
1589.857346744574
 31
0.0
  0
LINE
  5
1EA2
330
2
100
AcDbEntity
  8
エンボス
  6
Continuous
100
AcDbLine
 10
1358.314928814497
 20
1580.857346744574
 30
0.0
 11
1361.314928814497
 21
1582.057346744574
 31
0.0
  0
LINE
  5
1EA3
330
2
100
AcDbEntity
  8
エンボス
  6
Continuous
100
AcDbLine
 10
1361.314928814497
 20
1619.057346744574
 30
0.0
 11
1358.314928814497
 21
1617.857346744574
 31
0.0
  0
LINE
  5
1EA4
330
2
100
AcDbEntity
  8
エンボス
  6
Continuous
100
AcDbLine
 10
1358.314928814497
 20
1624.857346744574
 30
0.0
 11
1361.314928814497
 21
1623.657346744574
 31
0.0
  0
LINE
  5
1EA5
330
2
100
AcDbEntity
  8
エンボス
  6
Continuous
100
AcDbLine
 10
1361.314928814497
 20
1481.557346744574
 30
0.0
 11
1358.314928814497
 21
1480.357346744574
 31
0.0
  0
LINE
  5
1EA6
330
2
100
AcDbEntity
  8
エンボス
  6
Continuous
100
AcDbLine
 10
1358.314928814497
 20
1487.357346744574
 30
0.0
 11
1361.314928814497
 21
1486.157346744574
 31
0.0
  0
LINE
  5
1EA7
330
2
100
AcDbEntity
  8
エンボス
  6
Continuous
100
AcDbLine
 10
1361.314928814497
 20
1495.157346744574
 30
0.0
 11
1358.314928814497
 21
1496.357346744574
 31
0.0
  0
LINE
  5
1EA8
330
2
100
AcDbEntity
  8
エンボス
  6
Continuous
100
AcDbLine
 10
1358.314928814497
 20
1499.357346744574
 30
0.0
 11
1361.314928814497
 21
1500.557346744574
 31
0.0
  0
LINE
  5
1EA9
330
2
100
AcDbEntity
  8
エンボス
  6
Continuous
100
AcDbLine
 10
1358.314928814497
 20
1515.357346744574
 30
0.0
 11
1361.314928814497
 21
1514.157346744574
 31
0.0
  0
LINE
  5
1EAA
330
2
100
AcDbEntity
  8
エンボス
  6
Continuous
100
AcDbLine
 10
1361.314928814497
 20
1509.557346744574
 30
0.0
 11
1358.314928814497
 21
1508.357346744574
 31
0.0
  0
LINE
  5
1EAB
330
2
100
AcDbEntity
  8
エンボス
  6
Continuous
100
AcDbLine
 10
1361.314928814497
 20
1523.157346744574
 30
0.0
 11
1358.314928814497
 21
1524.357346744574
 31
0.0
  0
LINE
  5
1EAC
330
2
100
AcDbEntity
  8
エンボス
  6
Continuous
100
AcDbLine
 10
1358.314928814497
 20
1527.357346744574
 30
0.0
 11
1361.314928814497
 21
1528.557346744574
 31
0.0
  0
LINE
  5
1EAD
330
2
100
AcDbEntity
  8
エンボス
  6
Continuous
100
AcDbLine
 10
1361.314928814497
 20
1537.557346744574
 30
0.0
 11
1358.314928814497
 21
1536.357346744574
 31
0.0
  0
LINE
  5
1EAE
330
2
100
AcDbEntity
  8
エンボス
  6
Continuous
100
AcDbLine
 10
1361.314928814497
 20
1551.157346744574
 30
0.0
 11
1358.314928814497
 21
1552.357346744574
 31
0.0
  0
LINE
  5
1EAF
330
2
100
AcDbEntity
  8
エンボス
  6
Continuous
100
AcDbLine
 10
1358.314928814497
 20
1555.357346744574
 30
0.0
 11
1361.314928814497
 21
1556.557346744574
 31
0.0
  0
LINE
  5
1EB0
330
2
100
AcDbEntity
  8
エンボス
  6
Continuous
100
AcDbLine
 10
1358.314928814497
 20
1543.357346744574
 30
0.0
 11
1361.314928814497
 21
1542.157346744574
 31
0.0
  0
LINE
  5
1EB1
330
2
100
AcDbEntity
  8
エンボス
  6
Continuous
100
AcDbLine
 10
1358.314928814497
 20
1387.357346744574
 30
0.0
 11
1361.314928814497
 21
1386.157346744574
 31
0.0
  0
LINE
  5
1EB2
330
2
100
AcDbEntity
  8
エンボス
  6
Continuous
100
AcDbLine
 10
1361.314928814497
 20
1381.557346744574
 30
0.0
 11
1358.314928814497
 21
1380.357346744574
 31
0.0
  0
LINE
  5
1EB3
330
2
100
AcDbEntity
  8
エンボス
  6
Continuous
100
AcDbLine
 10
1358.314928814497
 20
1399.357346744574
 30
0.0
 11
1361.314928814497
 21
1400.557346744574
 31
0.0
  0
LINE
  5
1EB4
330
2
100
AcDbEntity
  8
エンボス
  6
Continuous
100
AcDbLine
 10
1361.314928814497
 20
1395.157346744574
 30
0.0
 11
1358.314928814497
 21
1396.357346744574
 31
0.0
  0
LINE
  5
1EB5
330
2
100
AcDbEntity
  8
エンボス
  6
Continuous
100
AcDbLine
 10
1358.314928814497
 20
1427.357346744574
 30
0.0
 11
1361.314928814497
 21
1428.557346744574
 31
0.0
  0
LINE
  5
1EB6
330
2
100
AcDbEntity
  8
エンボス
  6
Continuous
100
AcDbLine
 10
1361.314928814497
 20
1423.157346744574
 30
0.0
 11
1358.314928814497
 21
1424.357346744574
 31
0.0
  0
LINE
  5
1EB7
330
2
100
AcDbEntity
  8
エンボス
  6
Continuous
100
AcDbLine
 10
1361.314928814497
 20
1409.557346744574
 30
0.0
 11
1358.314928814497
 21
1408.357346744574
 31
0.0
  0
LINE
  5
1EB8
330
2
100
AcDbEntity
  8
エンボス
  6
Continuous
100
AcDbLine
 10
1358.314928814497
 20
1415.357346744574
 30
0.0
 11
1361.314928814497
 21
1414.157346744574
 31
0.0
  0
LINE
  5
1EB9
330
2
100
AcDbEntity
  8
エンボス
  6
Continuous
100
AcDbLine
 10
1358.314928814497
 20
1443.357346744574
 30
0.0
 11
1361.314928814497
 21
1442.157346744574
 31
0.0
  0
LINE
  5
1EBA
330
2
100
AcDbEntity
  8
エンボス
  6
Continuous
100
AcDbLine
 10
1361.314928814497
 20
1437.557346744574
 30
0.0
 11
1358.314928814497
 21
1436.357346744574
 31
0.0
  0
LINE
  5
1EBB
330
2
100
AcDbEntity
  8
エンボス
  6
Continuous
100
AcDbLine
 10
1358.314928814497
 20
1455.357346744574
 30
0.0
 11
1361.314928814497
 21
1456.557346744574
 31
0.0
  0
LINE
  5
1EBC
330
2
100
AcDbEntity
  8
エンボス
  6
Continuous
100
AcDbLine
 10
1361.314928814497
 20
1451.157346744574
 30
0.0
 11
1358.314928814497
 21
1452.357346744574
 31
0.0
  0
LINE
  5
1EBD
330
2
100
AcDbEntity
  8
エンボス
  6
Continuous
100
AcDbLine
 10
1358.314928814497
 20
1355.357346744574
 30
0.0
 11
1361.314928814497
 21
1356.557346744574
 31
0.0
  0
LINE
  5
1EBE
330
2
100
AcDbEntity
  8
エンボス
  6
Continuous
100
AcDbLine
 10
1361.314928814497
 20
1281.557346744574
 30
0.0
 11
1358.314928814497
 21
1280.357346744574
 31
0.0
  0
LINE
  5
1EBF
330
2
100
AcDbEntity
  8
エンボス
  6
Continuous
100
AcDbLine
 10
1358.314928814497
 20
1299.357346744574
 30
0.0
 11
1361.314928814497
 21
1300.557346744574
 31
0.0
  0
LINE
  5
1EC0
330
2
100
AcDbEntity
  8
エンボス
  6
Continuous
100
AcDbLine
 10
1361.314928814497
 20
1295.157346744574
 30
0.0
 11
1358.314928814497
 21
1296.357346744574
 31
0.0
  0
LINE
  5
1EC1
330
2
100
AcDbEntity
  8
エンボス
  6
Continuous
100
AcDbLine
 10
1358.314928814497
 20
1287.357346744574
 30
0.0
 11
1361.314928814497
 21
1286.157346744574
 31
0.0
  0
LINE
  5
1EC2
330
2
100
AcDbEntity
  8
エンボス
  6
Continuous
100
AcDbLine
 10
1361.314928814497
 20
1309.557346744574
 30
0.0
 11
1358.314928814497
 21
1308.357346744574
 31
0.0
  0
LINE
  5
1EC3
330
2
100
AcDbEntity
  8
エンボス
  6
Continuous
100
AcDbLine
 10
1358.314928814497
 20
1315.357346744574
 30
0.0
 11
1361.314928814497
 21
1314.157346744574
 31
0.0
  0
LINE
  5
1EC4
330
2
100
AcDbEntity
  8
エンボス
  6
Continuous
100
AcDbLine
 10
1358.314928814497
 20
1343.357346744574
 30
0.0
 11
1361.314928814497
 21
1342.157346744574
 31
0.0
  0
LINE
  5
1EC5
330
2
100
AcDbEntity
  8
エンボス
  6
Continuous
100
AcDbLine
 10
1361.314928814497
 20
1337.557346744574
 30
0.0
 11
1358.314928814497
 21
1336.357346744574
 31
0.0
  0
LINE
  5
1EC6
330
2
100
AcDbEntity
  8
エンボス
  6
Continuous
100
AcDbLine
 10
1358.314928814497
 20
1327.357346744574
 30
0.0
 11
1361.314928814497
 21
1328.557346744574
 31
0.0
  0
LINE
  5
1EC7
330
2
100
AcDbEntity
  8
エンボス
  6
Continuous
100
AcDbLine
 10
1361.314928814497
 20
1323.157346744574
 30
0.0
 11
1358.314928814497
 21
1324.357346744574
 31
0.0
  0
LINE
  5
1EC8
330
2
100
AcDbEntity
  8
エンボス
  6
Continuous
100
AcDbLine
 10
1361.314928814497
 20
1351.157346744574
 30
0.0
 11
1358.314928814497
 21
1352.357346744574
 31
0.0
  0
LINE
  5
1EC9
330
2
100
AcDbEntity
  8
エンボス
  6
Continuous
100
AcDbLine
 10
1361.314928814497
 20
1241.657346744574
 30
0.0
 11
1358.314928814497
 21
1242.857346744574
 31
0.0
  0
LINE
  5
1ECA
330
2
100
AcDbEntity
  8
エンボス
  6
Continuous
100
AcDbLine
 10
1358.314928814497
 20
1233.857346744574
 30
0.0
 11
1361.314928814497
 21
1232.657346744574
 31
0.0
  0
LINE
  5
1ECB
330
2
100
AcDbEntity
  8
エンボス
  6
Continuous
100
AcDbLine
 10
1361.314928814497
 20
1228.057346744574
 30
0.0
 11
1358.314928814497
 21
1226.857346744574
 31
0.0
  0
LINE
  5
1ECC
330
2
100
AcDbEntity
  8
エンボス
  6
Continuous
100
AcDbLine
 10
1361.314928814497
 20
1213.657346744574
 30
0.0
 11
1358.314928814497
 21
1214.857346744574
 31
0.0
  0
LINE
  5
1ECD
330
2
100
AcDbEntity
  8
エンボス
  6
Continuous
100
AcDbLine
 10
1358.314928814497
 20
1217.857346744574
 30
0.0
 11
1361.314928814497
 21
1219.057346744573
 31
0.0
  0
LINE
  5
1ECE
330
2
100
AcDbEntity
  8
エンボス
  6
Continuous
100
AcDbLine
 10
1358.314928814497
 20
1245.857346744574
 30
0.0
 11
1361.314928814497
 21
1247.057346744574
 31
0.0
  0
LINE
  5
1ECF
330
2
100
AcDbEntity
  8
エンボス
  6
Continuous
100
AcDbLine
 10
1361.314928814497
 20
1256.057346744574
 30
0.0
 11
1358.314928814497
 21
1254.857346744574
 31
0.0
  0
LINE
  5
1ED0
330
2
100
AcDbEntity
  8
エンボス
  6
Continuous
100
AcDbLine
 10
1358.314928814497
 20
1261.857346744574
 30
0.0
 11
1361.314928814497
 21
1260.657346744574
 31
0.0
  0
LINE
  5
1ED1
330
2
100
AcDbEntity
  8
本体
  6
Continuous
100
AcDbLine
 10
369.3149287844972
 20
1629.157346744574
 30
0.0
 11
369.3149287844972
 21
1571.157346744574
 31
0.0
  0
LINE
  5
1ED2
330
2
100
AcDbEntity
  8
本体
  6
Continuous
100
AcDbLine
 10
366.3149287844972
 20
1629.157346744574
 30
0.0
 11
366.3149287844972
 21
1571.157346744574
 31
0.0
  0
LINE
  5
1ED3
330
2
100
AcDbEntity
  8
本体
  6
Continuous
100
AcDbLine
 10
369.3149287844972
 20
1566.157346744574
 30
0.0
 11
369.3149287844972
 21
1471.157346744574
 31
0.0
  0
LINE
  5
1ED4
330
2
100
AcDbEntity
  8
本体
  6
Continuous
100
AcDbLine
 10
366.3149287844972
 20
1566.157346744574
 30
0.0
 11
366.3149287844972
 21
1471.157346744574
 31
0.0
  0
LINE
  5
1ED5
330
2
100
AcDbEntity
  8
本体
  6
Continuous
100
AcDbLine
 10
366.3149287844972
 20
1466.157346744574
 30
0.0
 11
366.3149287844972
 21
1371.157346744574
 31
0.0
  0
LINE
  5
1ED6
330
2
100
AcDbEntity
  8
本体
  6
Continuous
100
AcDbLine
 10
369.3149287844972
 20
1466.157346744574
 30
0.0
 11
369.3149287844972
 21
1371.157346744574
 31
0.0
  0
LINE
  5
1ED7
330
2
100
AcDbEntity
  8
本体
  6
Continuous
100
AcDbLine
 10
366.3149287844972
 20
1366.157346744574
 30
0.0
 11
366.3149287844972
 21
1271.157346744574
 31
0.0
  0
LINE
  5
1ED8
330
2
100
AcDbEntity
  8
本体
  6
Continuous
100
AcDbLine
 10
369.3149287844972
 20
1366.157346744574
 30
0.0
 11
369.3149287844972
 21
1271.157346744574
 31
0.0
  0
LINE
  5
1ED9
330
2
100
AcDbEntity
  8
本体
  6
Continuous
100
AcDbLine
 10
369.3149287844972
 20
1208.157346744574
 30
0.0
 11
369.3149287844972
 21
1266.157346744574
 31
0.0
  0
LINE
  5
1EDA
330
2
100
AcDbEntity
  8
本体
  6
Continuous
100
AcDbLine
 10
366.3149287844972
 20
1208.157346744574
 30
0.0
 11
366.3149287844972
 21
1266.157346744574
 31
0.0
  0
LINE
  5
1EDB
330
2
100
AcDbEntity
  8
エンボス
  6
Continuous
100
AcDbLine
 10
369.3149288144973
 20
1576.657346744574
 30
0.0
 11
366.3149288144973
 21
1577.857346744574
 31
0.0
  0
LINE
  5
1EDC
330
2
100
AcDbEntity
  8
エンボス
  6
Continuous
100
AcDbLine
 10
369.3149288144973
 20
1604.657346744574
 30
0.0
 11
366.3149288144973
 21
1605.857346744574
 31
0.0
  0
LINE
  5
1EDD
330
2
100
AcDbEntity
  8
エンボス
  6
Continuous
100
AcDbLine
 10
366.3149288144973
 20
1608.857346744574
 30
0.0
 11
369.3149288144973
 21
1610.057346744574
 31
0.0
  0
LINE
  5
1EDE
330
2
100
AcDbEntity
  8
エンボス
  6
Continuous
100
AcDbLine
 10
366.3149288144973
 20
1596.857346744574
 30
0.0
 11
369.3149288144973
 21
1595.657346744574
 31
0.0
  0
LINE
  5
1EDF
330
2
100
AcDbEntity
  8
エンボス
  6
Continuous
100
AcDbLine
 10
369.3149288144973
 20
1591.057346744574
 30
0.0
 11
366.3149288144973
 21
1589.857346744574
 31
0.0
  0
LINE
  5
1EE0
330
2
100
AcDbEntity
  8
エンボス
  6
Continuous
100
AcDbLine
 10
366.3149288144973
 20
1580.857346744574
 30
0.0
 11
369.3149288144973
 21
1582.057346744574
 31
0.0
  0
LINE
  5
1EE1
330
2
100
AcDbEntity
  8
エンボス
  6
Continuous
100
AcDbLine
 10
369.3149288144973
 20
1619.057346744574
 30
0.0
 11
366.3149288144973
 21
1617.857346744574
 31
0.0
  0
LINE
  5
1EE2
330
2
100
AcDbEntity
  8
エンボス
  6
Continuous
100
AcDbLine
 10
366.3149288144973
 20
1624.857346744574
 30
0.0
 11
369.3149288144973
 21
1623.657346744574
 31
0.0
  0
LINE
  5
1EE3
330
2
100
AcDbEntity
  8
エンボス
  6
Continuous
100
AcDbLine
 10
369.3149288144973
 20
1481.557346744574
 30
0.0
 11
366.3149288144973
 21
1480.357346744574
 31
0.0
  0
LINE
  5
1EE4
330
2
100
AcDbEntity
  8
エンボス
  6
Continuous
100
AcDbLine
 10
366.3149288144973
 20
1487.357346744574
 30
0.0
 11
369.3149288144973
 21
1486.157346744574
 31
0.0
  0
LINE
  5
1EE5
330
2
100
AcDbEntity
  8
エンボス
  6
Continuous
100
AcDbLine
 10
369.3149288144973
 20
1495.157346744574
 30
0.0
 11
366.3149288144973
 21
1496.357346744574
 31
0.0
  0
LINE
  5
1EE6
330
2
100
AcDbEntity
  8
エンボス
  6
Continuous
100
AcDbLine
 10
366.3149288144973
 20
1499.357346744574
 30
0.0
 11
369.3149288144973
 21
1500.557346744574
 31
0.0
  0
LINE
  5
1EE7
330
2
100
AcDbEntity
  8
エンボス
  6
Continuous
100
AcDbLine
 10
366.3149288144973
 20
1515.357346744574
 30
0.0
 11
369.3149288144973
 21
1514.157346744574
 31
0.0
  0
LINE
  5
1EE8
330
2
100
AcDbEntity
  8
エンボス
  6
Continuous
100
AcDbLine
 10
369.3149288144973
 20
1509.557346744574
 30
0.0
 11
366.3149288144973
 21
1508.357346744574
 31
0.0
  0
LINE
  5
1EE9
330
2
100
AcDbEntity
  8
エンボス
  6
Continuous
100
AcDbLine
 10
369.3149288144973
 20
1523.157346744574
 30
0.0
 11
366.3149288144973
 21
1524.357346744574
 31
0.0
  0
LINE
  5
1EEA
330
2
100
AcDbEntity
  8
エンボス
  6
Continuous
100
AcDbLine
 10
366.3149288144973
 20
1527.357346744574
 30
0.0
 11
369.3149288144973
 21
1528.557346744574
 31
0.0
  0
LINE
  5
1EEB
330
2
100
AcDbEntity
  8
エンボス
  6
Continuous
100
AcDbLine
 10
369.3149288144973
 20
1537.557346744574
 30
0.0
 11
366.3149288144973
 21
1536.357346744574
 31
0.0
  0
LINE
  5
1EEC
330
2
100
AcDbEntity
  8
エンボス
  6
Continuous
100
AcDbLine
 10
369.3149288144973
 20
1551.157346744574
 30
0.0
 11
366.3149288144973
 21
1552.357346744574
 31
0.0
  0
LINE
  5
1EED
330
2
100
AcDbEntity
  8
エンボス
  6
Continuous
100
AcDbLine
 10
366.3149288144973
 20
1555.357346744574
 30
0.0
 11
369.3149288144973
 21
1556.557346744574
 31
0.0
  0
LINE
  5
1EEE
330
2
100
AcDbEntity
  8
エンボス
  6
Continuous
100
AcDbLine
 10
366.3149288144973
 20
1543.357346744574
 30
0.0
 11
369.3149288144973
 21
1542.157346744574
 31
0.0
  0
LINE
  5
1EEF
330
2
100
AcDbEntity
  8
エンボス
  6
Continuous
100
AcDbLine
 10
366.3149288144973
 20
1387.357346744574
 30
0.0
 11
369.3149288144973
 21
1386.157346744574
 31
0.0
  0
LINE
  5
1EF0
330
2
100
AcDbEntity
  8
エンボス
  6
Continuous
100
AcDbLine
 10
369.3149288144973
 20
1381.557346744574
 30
0.0
 11
366.3149288144973
 21
1380.357346744574
 31
0.0
  0
LINE
  5
1EF1
330
2
100
AcDbEntity
  8
エンボス
  6
Continuous
100
AcDbLine
 10
366.3149288144973
 20
1399.357346744574
 30
0.0
 11
369.3149288144973
 21
1400.557346744574
 31
0.0
  0
LINE
  5
1EF2
330
2
100
AcDbEntity
  8
エンボス
  6
Continuous
100
AcDbLine
 10
369.3149288144973
 20
1395.157346744574
 30
0.0
 11
366.3149288144973
 21
1396.357346744574
 31
0.0
  0
LINE
  5
1EF3
330
2
100
AcDbEntity
  8
エンボス
  6
Continuous
100
AcDbLine
 10
366.3149288144973
 20
1427.357346744574
 30
0.0
 11
369.3149288144973
 21
1428.557346744574
 31
0.0
  0
LINE
  5
1EF4
330
2
100
AcDbEntity
  8
エンボス
  6
Continuous
100
AcDbLine
 10
369.3149288144973
 20
1423.157346744574
 30
0.0
 11
366.3149288144973
 21
1424.357346744574
 31
0.0
  0
LINE
  5
1EF5
330
2
100
AcDbEntity
  8
エンボス
  6
Continuous
100
AcDbLine
 10
369.3149288144973
 20
1409.557346744574
 30
0.0
 11
366.3149288144973
 21
1408.357346744574
 31
0.0
  0
LINE
  5
1EF6
330
2
100
AcDbEntity
  8
エンボス
  6
Continuous
100
AcDbLine
 10
366.3149288144973
 20
1415.357346744574
 30
0.0
 11
369.3149288144973
 21
1414.157346744574
 31
0.0
  0
LINE
  5
1EF7
330
2
100
AcDbEntity
  8
エンボス
  6
Continuous
100
AcDbLine
 10
366.3149288144973
 20
1443.357346744574
 30
0.0
 11
369.3149288144973
 21
1442.157346744574
 31
0.0
  0
LINE
  5
1EF8
330
2
100
AcDbEntity
  8
エンボス
  6
Continuous
100
AcDbLine
 10
369.3149288144973
 20
1437.557346744574
 30
0.0
 11
366.3149288144973
 21
1436.357346744574
 31
0.0
  0
LINE
  5
1EF9
330
2
100
AcDbEntity
  8
エンボス
  6
Continuous
100
AcDbLine
 10
366.3149288144973
 20
1455.357346744574
 30
0.0
 11
369.3149288144973
 21
1456.557346744574
 31
0.0
  0
LINE
  5
1EFA
330
2
100
AcDbEntity
  8
エンボス
  6
Continuous
100
AcDbLine
 10
369.3149288144973
 20
1451.157346744574
 30
0.0
 11
366.3149288144973
 21
1452.357346744574
 31
0.0
  0
LINE
  5
1EFB
330
2
100
AcDbEntity
  8
エンボス
  6
Continuous
100
AcDbLine
 10
366.3149288144973
 20
1355.357346744574
 30
0.0
 11
369.3149288144973
 21
1356.557346744574
 31
0.0
  0
LINE
  5
1EFC
330
2
100
AcDbEntity
  8
エンボス
  6
Continuous
100
AcDbLine
 10
369.3149288144973
 20
1281.557346744574
 30
0.0
 11
366.3149288144973
 21
1280.357346744574
 31
0.0
  0
LINE
  5
1EFD
330
2
100
AcDbEntity
  8
エンボス
  6
Continuous
100
AcDbLine
 10
366.3149288144973
 20
1299.357346744574
 30
0.0
 11
369.3149288144973
 21
1300.557346744574
 31
0.0
  0
LINE
  5
1EFE
330
2
100
AcDbEntity
  8
エンボス
  6
Continuous
100
AcDbLine
 10
369.3149288144973
 20
1295.157346744574
 30
0.0
 11
366.3149288144973
 21
1296.357346744574
 31
0.0
  0
LINE
  5
1EFF
330
2
100
AcDbEntity
  8
エンボス
  6
Continuous
100
AcDbLine
 10
366.3149288144973
 20
1287.357346744574
 30
0.0
 11
369.3149288144973
 21
1286.157346744574
 31
0.0
  0
LINE
  5
1F00
330
2
100
AcDbEntity
  8
エンボス
  6
Continuous
100
AcDbLine
 10
369.3149288144973
 20
1309.557346744574
 30
0.0
 11
366.3149288144973
 21
1308.357346744574
 31
0.0
  0
LINE
  5
1F01
330
2
100
AcDbEntity
  8
エンボス
  6
Continuous
100
AcDbLine
 10
366.3149288144973
 20
1315.357346744574
 30
0.0
 11
369.3149288144973
 21
1314.157346744574
 31
0.0
  0
LINE
  5
1F02
330
2
100
AcDbEntity
  8
エンボス
  6
Continuous
100
AcDbLine
 10
366.3149288144973
 20
1343.357346744574
 30
0.0
 11
369.3149288144973
 21
1342.157346744574
 31
0.0
  0
LINE
  5
1F03
330
2
100
AcDbEntity
  8
エンボス
  6
Continuous
100
AcDbLine
 10
369.3149288144973
 20
1337.557346744574
 30
0.0
 11
366.3149288144973
 21
1336.357346744574
 31
0.0
  0
LINE
  5
1F04
330
2
100
AcDbEntity
  8
エンボス
  6
Continuous
100
AcDbLine
 10
366.3149288144973
 20
1327.357346744574
 30
0.0
 11
369.3149288144973
 21
1328.557346744574
 31
0.0
  0
LINE
  5
1F05
330
2
100
AcDbEntity
  8
エンボス
  6
Continuous
100
AcDbLine
 10
369.3149288144973
 20
1323.157346744574
 30
0.0
 11
366.3149288144973
 21
1324.357346744574
 31
0.0
  0
LINE
  5
1F06
330
2
100
AcDbEntity
  8
エンボス
  6
Continuous
100
AcDbLine
 10
369.3149288144973
 20
1351.157346744574
 30
0.0
 11
366.3149288144973
 21
1352.357346744574
 31
0.0
  0
LINE
  5
1F07
330
2
100
AcDbEntity
  8
エンボス
  6
Continuous
100
AcDbLine
 10
369.3149288144973
 20
1241.657346744574
 30
0.0
 11
366.3149288144973
 21
1242.857346744574
 31
0.0
  0
LINE
  5
1F08
330
2
100
AcDbEntity
  8
エンボス
  6
Continuous
100
AcDbLine
 10
366.3149288144973
 20
1233.857346744574
 30
0.0
 11
369.3149288144973
 21
1232.657346744574
 31
0.0
  0
LINE
  5
1F09
330
2
100
AcDbEntity
  8
エンボス
  6
Continuous
100
AcDbLine
 10
369.3149288144973
 20
1228.057346744574
 30
0.0
 11
366.3149288144973
 21
1226.857346744574
 31
0.0
  0
LINE
  5
1F0A
330
2
100
AcDbEntity
  8
エンボス
  6
Continuous
100
AcDbLine
 10
369.3149288144973
 20
1213.657346744574
 30
0.0
 11
366.3149288144973
 21
1214.857346744574
 31
0.0
  0
LINE
  5
1F0B
330
2
100
AcDbEntity
  8
エンボス
  6
Continuous
100
AcDbLine
 10
366.3149288144973
 20
1217.857346744574
 30
0.0
 11
369.3149288144973
 21
1219.057346744573
 31
0.0
  0
LINE
  5
1F0C
330
2
100
AcDbEntity
  8
エンボス
  6
Continuous
100
AcDbLine
 10
366.3149288144973
 20
1245.857346744574
 30
0.0
 11
369.3149288144973
 21
1247.057346744574
 31
0.0
  0
LINE
  5
1F0D
330
2
100
AcDbEntity
  8
エンボス
  6
Continuous
100
AcDbLine
 10
369.3149288144973
 20
1256.057346744574
 30
0.0
 11
366.3149288144973
 21
1254.857346744574
 31
0.0
  0
LINE
  5
1F0E
330
2
100
AcDbEntity
  8
エンボス
  6
Continuous
100
AcDbLine
 10
366.3149288144973
 20
1261.857346744574
 30
0.0
 11
369.3149288144973
 21
1260.657346744574
 31
0.0
  0
LINE
  5
1F0F
330
2
100
AcDbEntity
  8
本体
 48
3.0
100
AcDbLine
 10
366.3149287844972
 20
1633.657346744574
 30
0.0
 11
366.3149287844972
 21
1203.657346744574
 31
0.0
  0
LINE
  5
1F10
330
2
100
AcDbEntity
  8
本体
 48
3.0
100
AcDbLine
 10
1361.314928784497
 20
1203.657346744574
 30
0.0
 11
1361.314928784497
 21
1633.657346744574
 31
0.0
  0
INSERT
  5
1F18
102
{ACAD_REACTORS
330
1F62
102
}
330
2
100
AcDbEntity
  8
本体
100
AcDbBlockReference
  2
*U19
 10
374.0934097994973
 20
1418.657346744574
 30
0.0
  0
LEADER
  5
1FBC
330
2
100
AcDbEntity
  8
寸法線
  6
Continuous
100
AcDbLeader
  3
ISO-25
 73
     0
 74
     0
 75
     1
 40
30.0
 41
152.1319796954314
 76
     3
 10
1360.075550122978
 20
1501.693815626677
 30
0.0
 10
1415.786228241632
 20
1572.904493745332
 30
0.0
 10
1430.786228241633
 20
1572.904493745332
 30
0.0
340
1FBD
1001
ACAD
1000
DSTYLE
1002
{
1070
     5
1000
OPEN30
1070
    77
1070
     1
1070
   147
1040
0.5
1070
   342
1005
C0
1002
}
  0
MTEXT
  5
1FBD
102
{ACAD_REACTORS
330
1FBC
102
}
330
2
100
AcDbEntity
  8
寸法線
  6
Continuous
100
AcDbMText
 10
1435.786228241633
 20
1577.904493745332
 30
0.0
 40
30.0
 41
0.0
 71
     7
 72
     1
  1
GFB3\U+00D725
 73
     1
 44
1.0
1001
ACAD
1000
MTEXTBEGIN
1070
    73
1070
     1
1070
    44
1040
1.0
1070
    74
1070
     0
1000
MTEXTEND
  0
LEADER
  5
1FBE
330
2
100
AcDbEntity
  8
寸法線
  6
Continuous
100
AcDbLeader
  3
ISO-25
 73
     0
 74
     0
 75
     1
 40
30.0
 41
35.78680203045685
 76
     3
 10
1360.075550122978
 20
1367.53489461307
 30
0.0
 10
1415.786228241632
 20
1438.745572731725
 30
0.0
 10
1430.786228241633
 20
1438.745572731725
 30
0.0
340
1FBF
1001
ACAD
1000
DSTYLE
1002
{
1070
     5
1000
OPEN30
1070
    77
1070
     1
1070
   147
1040
0.5
1070
   342
1005
C0
1002
}
  0
MTEXT
  5
1FBF
102
{ACAD_REACTORS
330
1FBE
102
}
330
2
100
AcDbEntity
  8
寸法線
  6
Continuous
100
AcDbMText
 10
1435.786228241633
 20
1443.745572731725
 30
0.0
 40
30.0
 41
0.0
 71
     7
 72
     1
  1
TB
 73
     1
 44
1.0
1001
ACAD
1000
MTEXTBEGIN
1070
    73
1070
     1
1070
    44
1040
1.0
1070
    74
1070
     0
1000
MTEXTEND
  0
ENDSEC
  0
SECTION
  2
OBJECTS
  0
DICTIONARY
  5
7
330
0
100
AcDbDictionary
281
     1
  3
ACAD_ASSOCNETWORK
350
1E36
  3
ACAD_CIP_PREVIOUS_PRODUCT_INFO
350
1BC0
  3
ACAD_COLOR
350
1B9E
  3
ACAD_DETAILVIEWSTYLE
350
1BB7
  3
ACAD_GROUP
350
16CE
  3
ACAD_LAYOUT
350
16B4
  3
ACAD_MATERIAL
350
1B6C
  3
ACAD_MLEADERSTYLE
350
1BB3
  3
ACAD_MLINESTYLE
350
16CF
  3
ACAD_PLOTSETTINGS
350
16D0
  3
ACAD_PLOTSTYLENAME
350
6
  3
ACAD_SCALELIST
350
1BA1
  3
ACAD_SECTIONVIEWSTYLE
350
1BB5
  3
ACAD_TABLESTYLE
350
1B9F
  3
ACAD_VISUALSTYLE
350
1B85
  3
ACDB_RECOMPOSE_DATA
350
2078
  3
AcDbVariableDictionary
350
1C1F
  3
DWGPROPS
350
2079
  0
DICTIONARY
  5
1BE2
330
16C9
100
AcDbDictionary
280
     1
281
     1
  0
DICTIONARY
  5
1C38
330
16C1
100
AcDbDictionary
280
     1
281
     1
  3
ACAD_LAYERSTATES
360
1C39
  0
DICTIONARY
  5
1BC1
330
76
100
AcDbDictionary
280
     1
281
     1
  3
ADSK_XREC_LAYER_RECONCILED
360
1BC2
  0
DICTIONARY
  5
1BC3
330
80
100
AcDbDictionary
280
     1
281
     1
  3
ADSK_XREC_LAYER_RECONCILED
360
1BC4
  0
DICTIONARY
  5
1BC5
330
4
100
AcDbDictionary
280
     1
281
     1
  3
ADSK_XREC_LAYER_RECONCILED
360
1BC6
  0
DICTIONARY
  5
1BC9
330
65C
100
AcDbDictionary
280
     1
281
     1
  3
ADSK_XREC_LAYER_RECONCILED
360
1BCA
  0
DICTIONARY
  5
1BCB
330
11
100
AcDbDictionary
280
     1
281
     1
  3
ADSK_XREC_LAYER_RECONCILED
360
1BCC
  0
DICTIONARY
  5
1BCF
330
1ADF
100
AcDbDictionary
280
     1
281
     1
  3
ADSK_XREC_LAYER_RECONCILED
360
1BD0
  0
DICTIONARY
  5
1BD1
330
1AE4
100
AcDbDictionary
280
     1
281
     1
  3
ADSK_XREC_LAYER_RECONCILED
360
1BD2
  0
DICTIONARY
  5
1BD3
330
1AE9
100
AcDbDictionary
280
     1
281
     1
  3
ADSK_XREC_LAYER_RECONCILED
360
1BD4
  0
DICTIONARY
  5
1BD5
330
1AEE
100
AcDbDictionary
280
     1
281
     1
  3
ADSK_XREC_LAYER_RECONCILED
360
1BD6
  0
DICTIONARY
  5
16AF
330
2
100
AcDbDictionary
280
     1
281
     1
  3
ACAD_ASSOCNETWORK
360
1E34
  3
ACAD_LAYOUTSELFREF
360
1A82
  3
ACAD_SORTENTS
360
1CA9
  0
DICTIONARY
  5
16B6
330
16B5
100
AcDbDictionary
280
     1
281
     1
  3
ACAD_LAYOUTSELFREF
360
1A8F
  0
DICTIONARY
  5
16BC
330
16BB
100
AcDbDictionary
280
     1
281
     1
  3
ACAD_LAYOUTSELFREF
360
1A90
  0
DICTIONARY
  5
1C32
330
1C31
100
AcDbDictionary
280
     1
281
     1
  0
DICTIONARY
  5
1E15
330
1E0A
100
AcDbDictionary
280
     1
281
     1
  0
DICTIONARY
  5
2005
330
1E2A
100
AcDbDictionary
280
     1
281
     1
  3
AcDbBlockTableRecordData
360
20BA
  0
DICTIONARY
  5
2008
330
1F15
100
AcDbDictionary
280
     1
281
     1
  3
AcDbBlockTableRecordData
360
20BC
  0
DICTIONARY
  5
2021
330
201F
100
AcDbDictionary
280
     1
281
     1
  0
DICTIONARY
  5
1E36
102
{ACAD_REACTORS
330
7
102
}
330
7
100
AcDbDictionary
281
     1
  3
ACAD_ASSOCNETWORK
350
1E37
  0
XRECORD
  5
1BC0
102
{ACAD_REACTORS
330
7
102
}
330
7
100
AcDbXrecord
280
     1
300
ACDLT
300
2014
300
ACDLT_F_S
  0
DICTIONARY
  5
1B9E
102
{ACAD_REACTORS
330
7
102
}
330
7
100
AcDbDictionary
281
     1
  0
DICTIONARY
  5
1BB7
102
{ACAD_REACTORS
330
7
102
}
330
7
100
AcDbDictionary
281
     1
  3
Metric50
350
1BB8
  0
DICTIONARY
  5
16CE
102
{ACAD_REACTORS
330
7
102
}
330
7
100
AcDbDictionary
281
     1
  0
DICTIONARY
  5
16B4
102
{ACAD_REACTORS
330
7
102
}
330
7
100
AcDbDictionary
281
     1
  3
Layout1
350
16BA
  3
Layout2
350
16C0
  3
Model
350
16B3
  0
DICTIONARY
  5
1B6C
102
{ACAD_REACTORS
330
7
102
}
330
7
100
AcDbDictionary
281
     1
  3
ByBlock
350
1B75
  3
ByLayer
350
1B6D
  3
Global
350
1B7D
  0
DICTIONARY
  5
1BB3
102
{ACAD_REACTORS
330
7
102
}
330
7
100
AcDbDictionary
281
     1
  3
Standard
350
1BB4
  0
DICTIONARY
  5
16CF
102
{ACAD_REACTORS
330
7
102
}
330
7
100
AcDbDictionary
281
     1
  3
Standard
350
16D1
  0
DICTIONARY
  5
16D0
102
{ACAD_REACTORS
330
7
102
}
330
7
100
AcDbDictionary
281
     1
  0
ACDBDICTIONARYWDFLT
  5
6
102
{ACAD_REACTORS
330
7
102
}
330
7
100
AcDbDictionary
281
     1
  3
Normal
350
5
100
AcDbDictionaryWithDefault
340
5
  0
DICTIONARY
  5
1BA1
102
{ACAD_REACTORS
330
7
102
}
330
7
100
AcDbDictionary
281
     1
  3
A0
350
1BA2
  3
A1
350
1BA3
  3
A2
350
1BA4
  3
A3
350
1BA5
  3
A4
350
1BA6
  3
A5
350
1BA7
  3
A6
350
1BA8
  3
A7
350
1BA9
  3
A8
350
1BAA
  3
A9
350
1BAB
  3
B0
350
1BAC
  3
B1
350
1BAD
  3
B2
350
1BAE
  3
B3
350
1BAF
  3
B4
350
1BB0
  3
B5
350
1BB1
  3
B6
350
1BB2
  0
DICTIONARY
  5
1BB5
102
{ACAD_REACTORS
330
7
102
}
330
7
100
AcDbDictionary
281
     1
  3
Metric50
350
1BB6
  0
DICTIONARY
  5
1B9F
102
{ACAD_REACTORS
330
7
102
}
330
7
100
AcDbDictionary
281
     1
  3
Standard
350
1BA0
  0
DICTIONARY
  5
1B85
102
{ACAD_REACTORS
330
7
102
}
330
7
100
AcDbDictionary
281
     1
  3
2dWireframe
350
1B8B
  3
Basic
350
1B8A
  3
Brighten
350
1B91
  3
ColorChange
350
1B95
  3
Conceptual
350
1B8E
  3
Dim
350
1B90
  3
EdgeColorOff
350
1B9D
  3
Facepattern
350
1B94
  3
Flat
350
1B86
  3
FlatWithEdges
350
1B87
  3
Gouraud
350
1B88
  3
GouraudWithEdges
350
1B89
  3
Hidden
350
1B8D
  3
JitterOff
350
1B9B
  3
Linepattern
350
1B93
  3
OverhangOff
350
1B9C
  3
Realistic
350
1B8F
  3
Shaded
350
1B9A
  3
Shaded with edges
350
1B99
  3
Shades of Gray
350
1B96
  3
Sketchy
350
1B97
  3
Thicken
350
1B92
  3
Wireframe
350
1B8C
  3
X-Ray
350
1B98
  0
XRECORD
  5
2078
102
{ACAD_REACTORS
330
7
102
}
330
7
100
AcDbXrecord
280
     1
 90
        1
330
1BA0
  0
DICTIONARY
  5
1C1F
102
{ACAD_REACTORS
330
7
102
}
330
7
100
AcDbDictionary
281
     1
  3
CANNOSCALE
350
1C24
  3
CMLEADERSTYLE
350
1C21
  3
CTABLESTYLE
350
1C20
  3
CVIEWDETAILSTYLE
350
1C22
  3
CVIEWSECTIONSTYLE
350
1C23
  3
DIMASSOC
350
1C27
  3
INDEXCTL
350
1C26
  3
SORTENTS
350
1C25
  3
XCLIPFRAME
350
2076
  0
XRECORD
  5
2079
102
{ACAD_REACTORS
330
7
102
}
330
7
100
AcDbXrecord
280
     1
  1
DWGPROPS COOKIE
  2

  3

  4

  6

  7

  8
takara
  9

300
=
301
=
302
=
303
=
304
=
305
=
306
=
307
=
308
=
309
=
 40
0.070259525462963
 41
2453510.558637211
 42
2457557.646822928
  1

 90
        0
  0
DICTIONARY
  5
1C39
102
{ACAD_REACTORS
330
1C38
102
}
330
1C38
100
AcDbDictionary
281
     1
  3
_LAYISO_STATE
350
1E22
1001
AcLayerTools
1000
16B3
1000
0
  0
XRECORD
  5
1BC2
102
{ACAD_REACTORS
330
1BC1
102
}
330
1BC1
100
AcDbXrecord
280
     1
290
     1
  0
XRECORD
  5
1BC4
102
{ACAD_REACTORS
330
1BC3
102
}
330
1BC3
100
AcDbXrecord
280
     1
290
     1
  0
XRECORD
  5
1BC6
102
{ACAD_REACTORS
330
1BC5
102
}
330
1BC5
100
AcDbXrecord
280
     1
290
     1
  0
XRECORD
  5
1BCA
102
{ACAD_REACTORS
330
1BC9
102
}
330
1BC9
100
AcDbXrecord
280
     1
290
     1
  0
XRECORD
  5
1BCC
102
{ACAD_REACTORS
330
1BCB
102
}
330
1BCB
100
AcDbXrecord
280
     1
290
     1
  0
XRECORD
  5
1BD0
102
{ACAD_REACTORS
330
1BCF
102
}
330
1BCF
100
AcDbXrecord
280
     1
290
     1
  0
XRECORD
  5
1BD2
102
{ACAD_REACTORS
330
1BD1
102
}
330
1BD1
100
AcDbXrecord
280
     1
290
     1
  0
XRECORD
  5
1BD4
102
{ACAD_REACTORS
330
1BD3
102
}
330
1BD3
100
AcDbXrecord
280
     1
290
     1
  0
XRECORD
  5
1BD6
102
{ACAD_REACTORS
330
1BD5
102
}
330
1BD5
100
AcDbXrecord
280
     1
290
     1
  0
DICTIONARY
  5
1E34
102
{ACAD_REACTORS
330
16AF
102
}
330
16AF
100
AcDbDictionary
281
     1
  3
ACAD_ASSOCNETWORK
350
1E35
  0
XRECORD
  5
1A82
102
{ACAD_REACTORS
330
16AF
102
}
330
16AF
100
AcDbXrecord
280
     1
340
2
  0
SORTENTSTABLE
  5
1CA9
102
{ACAD_REACTORS
330
16AF
102
}
330
16AF
100
AcDbSortentsTable
330
2
331
85
  5
85
331
194D
  5
194D
331
97
  5
97
331
4C7
  5
4C7
331
571
  5
571
331
1711
  5
1711
331
584
  5
584
331
1ACC
  5
1ACC
331
4E
  5
4E
331
6B
  5
6B
331
1E
  5
1E
331
3B
  5
3B
331
58
  5
58
331
28
  5
28
331
45
  5
45
331
62
  5
62
331
32
  5
32
331
EE
  5
EE
331
9C
  5
9C
331
189F
  5
189F
331
BE
  5
BE
331
F8
  5
F8
331
56C
  5
56C
331
81
  5
81
331
1716
  5
1716
331
141
  5
141
331
18A0
  5
18A0
331
16AE
  5
16AE
331
14B
  5
14B
331
5D
  5
5D
331
4A
  5
4A
331
67
  5
67
331
1A
  5
1A
331
37
  5
37
331
54
  5
54
331
24
  5
24
331
41
  5
41
331
F3
  5
F3
331
E0
  5
E0
331
98
  5
98
331
572
  5
572
331
1712
  5
1712
331
13D
  5
13D
331
585
  5
585
331
1ACD
  5
1ACD
331
4F
  5
4F
331
6C
  5
6C
331
1F
  5
1F
331
3C
  5
3C
331
59
  5
59
331
29
  5
29
331
46
  5
46
331
63
  5
63
331
50
  5
50
331
33
  5
33
331
20
  5
20
331
9D
  5
9D
331
EF
  5
EF
331
56D
  5
56D
331
82
  5
82
331
422
  5
422
331
94
  5
94
331
1717
  5
1717
331
142
  5
142
331
36F
  5
36F
331
18A1
  5
18A1
331
65A
  5
65A
331
169C
  5
169C
331
114
  5
114
331
1B67
  5
1B67
331
1C42
  5
1C42
331
5E
  5
5E
331
4B
  5
4B
331
68
  5
68
331
72
  5
72
331
1B
  5
1B
331
38
  5
38
331
55
  5
55
331
25
  5
25
331
42
  5
42
331
12
  5
12
331
107
  5
107
331
99
  5
99
331
189C
  5
189C
331
147
  5
147
331
37E
  5
37E
331
1713
  5
1713
331
13E
  5
13E
331
586
  5
586
331
6D
  5
6D
331
3D
  5
3D
331
5A
  5
5A
331
2A
  5
2A
331
47
  5
47
331
64
  5
64
331
17
  5
17
331
51
  5
51
331
21
  5
21
331
D3
  5
D3
331
F0
  5
F0
331
56E
  5
56E
331
83
  5
83
331
423
  5
423
331
95
  5
95
331
370
  5
370
331
18A2
  5
18A2
331
130
  5
130
331
1B68
  5
1B68
331
1C43
  5
1C43
331
5F
  5
5F
331
2F
  5
2F
331
4C
  5
4C
331
69
  5
69
331
1C
  5
1C
331
56
  5
56
331
73
  5
73
331
26
  5
26
331
43
  5
43
331
60
  5
60
331
13
  5
13
331
9A
  5
9A
331
189D
  5
189D
331
56A
  5
56A
331
7F
  5
7F
331
2D2
  5
2D2
331
37F
  5
37F
331
1714
  5
1714
331
13F
  5
13F
331
587
  5
587
331
149
  5
149
331
3E
  5
3E
331
5B
  5
5B
331
2B
  5
2B
331
48
  5
48
331
18
  5
18
331
52
  5
52
331
22
  5
22
331
F1
  5
F1
331
56F
  5
56F
331
84
  5
84
331
96
  5
96
331
4C6
  5
4C6
331
371
  5
371
331
570
  5
570
331
1710
  5
1710
331
1B69
  5
1B69
331
4D
  5
4D
331
6A
  5
6A
331
3A
  5
3A
331
57
  5
57
331
61
  5
61
331
27
  5
27
331
44
  5
44
331
14
  5
14
331
31
  5
31
331
ED
  5
ED
331
9B
  5
9B
331
56B
  5
56B
331
575
  5
575
331
1715
  5
1715
331
123
  5
123
331
140
  5
140
331
14A
  5
14A
331
6F
  5
6F
331
3F
  5
3F
331
5C
  5
5C
331
2C
  5
2C
331
49
  5
49
331
66
  5
66
331
19
  5
19
331
53
  5
53
331
70
  5
70
331
23
  5
23
331
40
  5
40
  0
XRECORD
  5
1A8F
102
{ACAD_REACTORS
330
16B6
102
}
330
16B6
100
AcDbXrecord
280
     1
340
16B5
  0
XRECORD
  5
1A90
102
{ACAD_REACTORS
330
16BC
102
}
330
16BC
100
AcDbXrecord
280
     1
340
16BB
  0
DICTIONARY
  5
20BA
102
{ACAD_REACTORS
330
2005
102
}
330
2005
100
AcDbDictionary
280
     1
281
     1
  3
Edit
360
20BB
  0
DICTIONARY
  5
20BC
102
{ACAD_REACTORS
330
2008
102
}
330
2008
100
AcDbDictionary
280
     1
281
     1
  3
Edit
360
20BD
  0
ACDBASSOCNETWORK
  5
1E37
102
{ACAD_REACTORS
330
1E36
102
}
330
1E36
100
AcDbAssocAction
 90
        1
 90
        1
330
0
360
0
 90
        0
 90
        0
 90
        0
100
AcDbAssocNetwork
 90
        0
 90
        1
 90
        1
330
1E35
 90
        1
330
1E35
  0
ACDBDETAILVIEWSTYLE
  5
1BB8
102
{ACAD_XDICTIONARY
360
20B8
102
}
102
{ACAD_REACTORS
330
1BB7
102
}
330
1BB7
100
AcDbModelDocViewStyle
 70
     0
  3
Metric50
290
     0
100
AcDbDetailViewStyle
 70
     0
 71
     0
 90
        3
 71
     1
340
9
 40
5.0
340
0
 40
5.0
300

 40
0.0
280
     1
 71
     2
340
8
 90
       25
 71
     3
340
9
 40
5.0
 90
        0
 40
15.0
 90
        1
300
%<\AcVar ViewDetailId>% (%<\AcVar ViewScale \f "%sn">%)
 71
     4
340
8
 90
       25
340
8
 90
       25
280
     0
  0
LAYOUT
  5
16BA
102
{ACAD_XDICTIONARY
360
207C
102
}
102
{ACAD_REACTORS
330
16B4
102
}
330
16B4
100
AcDbPlotSettings
  1

  2
None
  4

  6

 40
0.0
 41
0.0
 42
0.0
 43
0.0
 44
0.0
 45
0.0
 46
0.0
 47
0.0
 48
0.0
 49
0.0
140
0.0
141
0.0
142
1.0
143
1.0
 70
   688
 72
     0
 73
     0
 74
     5
  7
monochrome.ctb
 75
    16
147
1.0
148
0.0
149
0.0
100
AcDbLayout
  1
Layout1
 70
     1
 71
     1
 10
0.0
 20
0.0
 11
12.0
 21
9.0
 12
0.0
 22
0.0
 32
0.0
 14
0.0
 24
0.0
 34
0.0
 15
0.0
 25
0.0
 35
0.0
146
0.0
 13
0.0
 23
0.0
 33
0.0
 16
1.0
 26
0.0
 36
0.0
 17
0.0
 27
1.0
 37
0.0
 76
     0
330
16B5
  0
LAYOUT
  5
16C0
102
{ACAD_XDICTIONARY
360
207E
102
}
102
{ACAD_REACTORS
330
16B4
102
}
330
16B4
100
AcDbPlotSettings
  1

  2
None
  4

  6

 40
0.0
 41
0.0
 42
0.0
 43
0.0
 44
0.0
 45
0.0
 46
0.0
 47
0.0
 48
0.0
 49
0.0
140
0.0
141
0.0
142
1.0
143
1.0
 70
   688
 72
     0
 73
     0
 74
     5
  7
monochrome.ctb
 75
    16
147
1.0
148
0.0
149
0.0
100
AcDbLayout
  1
Layout2
 70
     1
 71
     2
 10
0.0
 20
0.0
 11
12.0
 21
9.0
 12
0.0
 22
0.0
 32
0.0
 14
0.0
 24
0.0
 34
0.0
 15
0.0
 25
0.0
 35
0.0
146
0.0
 13
0.0
 23
0.0
 33
0.0
 16
1.0
 26
0.0
 36
0.0
 17
0.0
 27
1.0
 37
0.0
 76
     0
330
16BB
  0
LAYOUT
  5
16B3
102
{ACAD_XDICTIONARY
360
207A
102
}
102
{ACAD_REACTORS
330
16B4
102
}
330
16B4
100
AcDbPlotSettings
  1

  2
EPSON LP-9400
  4
A4
  6

 40
5.873749732971191
 41
5.873747825622558
 42
5.873748779296875
 43
5.873748779296875
 44
209.9733276367187
 45
297.0106506347656
 46
2.339999999999999
 47
0.0
 48
0.0
 49
0.0
140
0.0
141
0.0
142
1.0
143
9.816891609963194
 70
 11956
 72
     1
 73
     1
 74
     1
  7
monochrome.ctb
 75
     0
147
0.1018652379725877
148
1264.94917075748
149
959.6633564695521
100
AcDbLayout
  1
Model
 70
     1
 71
     0
 10
0.0
 20
0.0
 11
12.0
 21
9.0
 12
0.0
 22
0.0
 32
0.0
 14
0.0
 24
0.0
 34
0.0
 15
0.0
 25
0.0
 35
0.0
146
0.0
 13
0.0
 23
0.0
 33
0.0
 16
1.0
 26
0.0
 36
0.0
 17
0.0
 27
1.0
 37
0.0
 76
     0
330
2
331
1B6A
  0
MATERIAL
  5
1B75
102
{ACAD_XDICTIONARY
360
1B76
102
}
102
{ACAD_REACTORS
330
1B6C
102
}
330
1B6C
100
AcDbMaterial
  1
ByBlock
 72
     0
 43
0.0008202099737533
 43
0.0
 43
0.0
 43
0.0
 43
0.0
 43
0.0008202099737533
 43
0.0
 43
0.0
 43
0.0
 43
0.0
 43
1.0
 43
0.0
 43
0.0
 43
0.0
 43
0.0
 43
1.0
 77
     0
 47
0.0008202099737533
 47
0.0
 47
0.0
 47
0.0
 47
0.0
 47
0.0008202099737533
 47
0.0
 47
0.0
 47
0.0
 47
0.0
 47
1.0
 47
0.0
 47
0.0
 47
0.0
 47
0.0
 47
1.0
171
     0
 49
0.0008202099737533
 49
0.0
 49
0.0
 49
0.0
 49
0.0
 49
0.0008202099737533
 49
0.0
 49
0.0
 49
0.0
 49
0.0
 49
1.0
 49
0.0
 49
0.0
 49
0.0
 49
0.0
 49
1.0
175
     0
142
0.0008202099737533
142
0.0
142
0.0
142
0.0
142
0.0
142
0.0008202099737533
142
0.0
142
0.0
142
0.0
142
0.0
142
1.0
142
0.0
142
0.0
142
0.0
142
0.0
142
1.0
179
     0
144
0.0008202099737533
144
0.0
144
0.0
144
0.0
144
0.0
144
0.0008202099737533
144
0.0
144
0.0
144
0.0
144
0.0
144
1.0
144
0.0
144
0.0
144
0.0
144
0.0
144
1.0
147
0.0008202099737533
147
0.0
147
0.0
147
0.0
147
0.0
147
0.0008202099737533
147
0.0
147
0.0
147
0.0
147
0.0
147
1.0
147
0.0
147
0.0
147
0.0
147
0.0
147
1.0
  0
MATERIAL
  5
1B6D
102
{ACAD_XDICTIONARY
360
1B6E
102
}
102
{ACAD_REACTORS
330
1B6C
102
}
330
1B6C
100
AcDbMaterial
  1
ByLayer
 72
     0
 43
0.0008202099737533
 43
0.0
 43
0.0
 43
0.0
 43
0.0
 43
0.0008202099737533
 43
0.0
 43
0.0
 43
0.0
 43
0.0
 43
1.0
 43
0.0
 43
0.0
 43
0.0
 43
0.0
 43
1.0
 77
     0
 47
0.0008202099737533
 47
0.0
 47
0.0
 47
0.0
 47
0.0
 47
0.0008202099737533
 47
0.0
 47
0.0
 47
0.0
 47
0.0
 47
1.0
 47
0.0
 47
0.0
 47
0.0
 47
0.0
 47
1.0
171
     0
 49
0.0008202099737533
 49
0.0
 49
0.0
 49
0.0
 49
0.0
 49
0.0008202099737533
 49
0.0
 49
0.0
 49
0.0
 49
0.0
 49
1.0
 49
0.0
 49
0.0
 49
0.0
 49
0.0
 49
1.0
175
     0
142
0.0008202099737533
142
0.0
142
0.0
142
0.0
142
0.0
142
0.0008202099737533
142
0.0
142
0.0
142
0.0
142
0.0
142
1.0
142
0.0
142
0.0
142
0.0
142
0.0
142
1.0
179
     0
144
0.0008202099737533
144
0.0
144
0.0
144
0.0
144
0.0
144
0.0008202099737533
144
0.0
144
0.0
144
0.0
144
0.0
144
1.0
144
0.0
144
0.0
144
0.0
144
0.0
144
1.0
147
0.0008202099737533
147
0.0
147
0.0
147
0.0
147
0.0
147
0.0008202099737533
147
0.0
147
0.0
147
0.0
147
0.0
147
1.0
147
0.0
147
0.0
147
0.0
147
0.0
147
1.0
  0
MATERIAL
  5
1B7D
102
{ACAD_XDICTIONARY
360
1B7E
102
}
102
{ACAD_REACTORS
330
1B6C
102
}
330
1B6C
100
AcDbMaterial
  1
Global
 72
     0
 43
0.0008202099737533
 43
0.0
 43
0.0
 43
0.0
 43
0.0
 43
0.0008202099737533
 43
0.0
 43
0.0
 43
0.0
 43
0.0
 43
1.0
 43
0.0
 43
0.0
 43
0.0
 43
0.0
 43
1.0
 77
     0
 47
0.0008202099737533
 47
0.0
 47
0.0
 47
0.0
 47
0.0
 47
0.0008202099737533
 47
0.0
 47
0.0
 47
0.0
 47
0.0
 47
1.0
 47
0.0
 47
0.0
 47
0.0
 47
0.0
 47
1.0
171
     0
 49
0.0008202099737533
 49
0.0
 49
0.0
 49
0.0
 49
0.0
 49
0.0008202099737533
 49
0.0
 49
0.0
 49
0.0
 49
0.0
 49
1.0
 49
0.0
 49
0.0
 49
0.0
 49
0.0
 49
1.0
175
     0
142
0.0008202099737533
142
0.0
142
0.0
142
0.0
142
0.0
142
0.0008202099737533
142
0.0
142
0.0
142
0.0
142
0.0
142
1.0
142
0.0
142
0.0
142
0.0
142
0.0
142
1.0
179
     0
144
0.0008202099737533
144
0.0
144
0.0
144
0.0
144
0.0
144
0.0008202099737533
144
0.0
144
0.0
144
0.0
144
0.0
144
1.0
144
0.0
144
0.0
144
0.0
144
0.0
144
1.0
147
0.0008202099737533
147
0.0
147
0.0
147
0.0
147
0.0
147
0.0008202099737533
147
0.0
147
0.0
147
0.0
147
0.0
147
1.0
147
0.0
147
0.0
147
0.0
147
0.0
147
1.0
  0
MLEADERSTYLE
  5
1BB4
102
{ACAD_XDICTIONARY
360
20B4
102
}
102
{ACAD_REACTORS
330
1BB3
102
}
330
1BB3
100
AcDbMLeaderStyle
170
     2
171
     1
172
     0
 90
        2
 40
0.0
 41
0.0
173
     1
 91
-1056964608
340
16C5
 92
       -2
290
     1
 42
2.0
291
     1
 43
0.36
  3
Standard
 44
4.0
300

342
9
174
     1
178
     6
175
     1
176
     0
 93
-1056964608
 45
4.0
292
     0
297
     0
 46
4.0
 94
-1056964608
 47
1.0
 49
1.0
140
1.0
293
     1
141
0.0
294
     1
177
     0
142
1.0
295
     0
296
     0
143
0.125
1001
ACAD_MLEADERVER
1070
     2
  0
MLINESTYLE
  5
16D1
102
{ACAD_REACTORS
330
16CF
102
}
330
16CF
100
AcDbMlineStyle
  2
STANDARD
 70
     0
  3

 62
   256
 51
90.0
 52
90.0
 71
     2
 49
0.5
 62
   256
  6
BYLAYER
 49
-0.5
 62
   256
  6
BYLAYER
  0
ACDBPLACEHOLDER
  5
5
102
{ACAD_REACTORS
330
6
102
}
330
6
  0
SCALE
  5
1BA2
102
{ACAD_REACTORS
330
1BA1
102
}
330
1BA1
100
AcDbScale
 70
     0
300
1:1
140
1.0
141
1.0
290
     1
  0
SCALE
  5
1BA3
102
{ACAD_REACTORS
330
1BA1
102
}
330
1BA1
100
AcDbScale
 70
     0
300
1:2
140
1.0
141
2.0
290
     0
  0
SCALE
  5
1BA4
102
{ACAD_REACTORS
330
1BA1
102
}
330
1BA1
100
AcDbScale
 70
     0
300
1:4
140
1.0
141
4.0
290
     0
  0
SCALE
  5
1BA5
102
{ACAD_REACTORS
330
1BA1
102
}
330
1BA1
100
AcDbScale
 70
     0
300
1:5
140
1.0
141
5.0
290
     0
  0
SCALE
  5
1BA6
102
{ACAD_REACTORS
330
1BA1
102
}
330
1BA1
100
AcDbScale
 70
     0
300
1:8
140
1.0
141
8.0
290
     0
  0
SCALE
  5
1BA7
102
{ACAD_REACTORS
330
1BA1
102
}
330
1BA1
100
AcDbScale
 70
     0
300
1:10
140
1.0
141
10.0
290
     0
  0
SCALE
  5
1BA8
102
{ACAD_REACTORS
330
1BA1
102
}
330
1BA1
100
AcDbScale
 70
     0
300
1:16
140
1.0
141
16.0
290
     0
  0
SCALE
  5
1BA9
102
{ACAD_REACTORS
330
1BA1
102
}
330
1BA1
100
AcDbScale
 70
     0
300
1:20
140
1.0
141
20.0
290
     0
  0
SCALE
  5
1BAA
102
{ACAD_REACTORS
330
1BA1
102
}
330
1BA1
100
AcDbScale
 70
     0
300
1:30
140
1.0
141
30.0
290
     0
  0
SCALE
  5
1BAB
102
{ACAD_REACTORS
330
1BA1
102
}
330
1BA1
100
AcDbScale
 70
     0
300
1:40
140
1.0
141
40.0
290
     0
  0
SCALE
  5
1BAC
102
{ACAD_REACTORS
330
1BA1
102
}
330
1BA1
100
AcDbScale
 70
     0
300
1:50
140
1.0
141
50.0
290
     0
  0
SCALE
  5
1BAD
102
{ACAD_REACTORS
330
1BA1
102
}
330
1BA1
100
AcDbScale
 70
     0
300
1:100
140
1.0
141
100.0
290
     0
  0
SCALE
  5
1BAE
102
{ACAD_REACTORS
330
1BA1
102
}
330
1BA1
100
AcDbScale
 70
     0
300
2:1
140
2.0
141
1.0
290
     0
  0
SCALE
  5
1BAF
102
{ACAD_REACTORS
330
1BA1
102
}
330
1BA1
100
AcDbScale
 70
     0
300
4:1
140
4.0
141
1.0
290
     0
  0
SCALE
  5
1BB0
102
{ACAD_REACTORS
330
1BA1
102
}
330
1BA1
100
AcDbScale
 70
     0
300
8:1
140
8.0
141
1.0
290
     0
  0
SCALE
  5
1BB1
102
{ACAD_REACTORS
330
1BA1
102
}
330
1BA1
100
AcDbScale
 70
     0
300
10:1
140
10.0
141
1.0
290
     0
  0
SCALE
  5
1BB2
102
{ACAD_REACTORS
330
1BA1
102
}
330
1BA1
100
AcDbScale
 70
     0
300
100:1
140
100.0
141
1.0
290
     0
  0
ACDBSECTIONVIEWSTYLE
  5
1BB6
102
{ACAD_XDICTIONARY
360
20B6
102
}
102
{ACAD_REACTORS
330
1BB5
102
}
330
1BB5
100
AcDbModelDocViewStyle
 70
     0
  3
Metric50
290
     0
100
AcDbSectionViewStyle
 70
     0
 71
     0
 90
      102
 71
     1
340
9
 40
5.0
340
0
340
0
 40
5.0
300
I, O, Q, S, X, Z
 40
10.0
 90
        0
 40
2.5
 90
        0
 71
     2
340
8
 90
       25
340
8
 90
       50
 40
5.0
 40
2.5
 40
5.0
 71
     3
340
9
 40
5.0
 90
        0
 40
15.0
 90
        1
300
%<\AcVar ViewSectionStartId>%-%<\AcVar ViewSectionEndId>% (%<\AcVar ViewScale \f "%sn">%)
 71
     4
300
ANSI31
 40
1.0
 90
        0
290
     0
290
     0
 90
        6
 40
0.0
 40
1.570796326794896
 40
0.2617993877991494
 40
1.308996938995747
 40
-0.2617993877991494
 40
1.832595714594046
  0
TABLESTYLE
  5
1BA0
102
{ACAD_XDICTIONARY
360
1BD8
102
}
102
{ACAD_REACTORS
330
1B9F
102
}
330
1B9F
100
AcDbTableStyle
  3
Standard
 70
     0
 71
     0
 40
1.5
 41
1.5
280
     0
281
     0
  7
Standard
140
4.5
170
     2
 62
     0
 63
     7
283
     0
274
    -2
284
     1
 64
     0
275
    -2
285
     1
 65
     0
276
    -2
286
     1
 66
     0
277
    -2
287
     1
 67
     0
278
    -2
288
     1
 68
     0
279
    -2
289
     1
 69
     0
  7
Standard
140
6.0
170
     5
 62
     0
 63
     7
283
     0
274
    -2
284
     1
 64
     0
275
    -2
285
     1
 65
     0
276
    -2
286
     1
 66
     0
277
    -2
287
     1
 67
     0
278
    -2
288
     1
 68
     0
279
    -2
289
     1
 69
     0
  7
Standard
140
4.5
170
     5
 62
     0
 63
     7
283
     0
274
    -2
284
     1
 64
     0
275
    -2
285
     1
 65
     0
276
    -2
286
     1
 66
     0
277
    -2
287
     1
 67
     0
278
    -2
288
     1
 68
     0
279
    -2
289
     1
 69
     0
  0
VISUALSTYLE
  5
1B8B
102
{ACAD_XDICTIONARY
360
208D
102
}
102
{ACAD_REACTORS
330
1B85
102
}
330
1B85
100
AcDbVisualStyle
  2
2dWireframe
 70
     4
 71
     0
 72
     2
 73
     0
 90
        0
 40
-0.6
 41
-30.0
 62
     5
 63
     7
 74
     1
 91
        4
 64
     7
 65
   257
 75
     1
175
     1
 42
1.0
 92
        0
 66
   257
 43
1.0
 76
     1
 77
     6
 78
     2
 67
     7
 79
     5
170
     0
171
     0
290
     0
174
     0
 93
        1
 44
0.0
173
     0
291
     0
 45
0.0
1001
ACAD
1000
AcDbSavedByObjectVersion
1070
     0
  0
VISUALSTYLE
  5
1B8A
102
{ACAD_XDICTIONARY
360
208B
102
}
102
{ACAD_REACTORS
330
1B85
102
}
330
1B85
100
AcDbVisualStyle
  2
Basic
 70
     7
 71
     1
 72
     0
 73
     1
 90
        0
 40
-0.6
 41
-30.0
 62
     5
 63
     7
 74
     0
 91
        4
 64
     7
 65
   257
 75
     1
175
     1
 42
1.0
 92
        8
 66
     7
 43
1.0
 76
     1
 77
     6
 78
     2
 67
     7
 79
     5
170
     0
171
     0
290
     0
174
     0
 93
        1
 44
0.0
173
     0
291
     1
 45
0.0
1001
ACAD
1000
AcDbSavedByObjectVersion
1070
     0
  0
VISUALSTYLE
  5
1B91
102
{ACAD_XDICTIONARY
360
2099
102
}
102
{ACAD_REACTORS
330
1B85
102
}
330
1B85
100
AcDbVisualStyle
  2
Brighten
 70
    12
 71
     2
 72
     2
 73
     0
 90
        0
 40
-0.6
 41
-30.0
 62
     5
 63
     7
 74
     1
 91
        4
 64
     7
 65
   257
 75
     1
175
     1
 42
1.0
 92
        8
 66
     7
 43
1.0
 76
     1
 77
     6
 78
     2
 67
     7
 79
     5
170
     0
171
     0
290
     0
174
     0
 93
        1
 44
50.0
173
     0
291
     1
 45
0.0
1001
ACAD
1000
AcDbSavedByObjectVersion
1070
     0
  0
VISUALSTYLE
  5
1B95
102
{ACAD_XDICTIONARY
360
20A1
102
}
102
{ACAD_REACTORS
330
1B85
102
}
330
1B85
100
AcDbVisualStyle
  2
ColorChange
 70
    16
 71
     2
 72
     2
 73
     3
 90
        0
 40
-0.6
 41
-30.0
 62
     5
 63
     8
 74
     1
 91
        4
 64
     7
 65
   257
 75
     1
175
     1
 42
1.0
 92
        8
 66
     8
 43
1.0
 76
     1
 77
     6
 78
     2
 67
     7
 79
     5
170
     0
171
     0
290
     0
174
     0
 93
        1
 44
0.0
173
     0
291
     1
 45
0.0
1001
ACAD
1000
AcDbSavedByObjectVersion
1070
     0
  0
VISUALSTYLE
  5
1B8E
102
{ACAD_XDICTIONARY
360
2093
102
}
102
{ACAD_REACTORS
330
1B85
102
}
330
1B85
100
AcDbVisualStyle
  2
Conceptual
 70
     9
 71
     3
 72
     2
 73
     0
 90
        0
 40
-0.6
 41
-30.0
 62
     5
 63
     7
 74
     2
 91
        2
 64
     7
 65
   257
 75
     1
175
     1
 42
179.0
 92
        8
 66
     7
 43
1.0
 76
     1
 77
     6
 78
     2
 67
     7
 79
     3
170
     0
171
     0
290
     0
174
     0
 93
        1
 44
0.0
173
     0
291
     0
 45
0.0
1001
ACAD
1000
AcDbSavedByObjectVersion
1070
     0
  0
VISUALSTYLE
  5
1B90
102
{ACAD_XDICTIONARY
360
2097
102
}
102
{ACAD_REACTORS
330
1B85
102
}
330
1B85
100
AcDbVisualStyle
  2
Dim
 70
    11
 71
     2
 72
     2
 73
     0
 90
        0
 40
-0.6
 41
-30.0
 62
     5
 63
     7
 74
     1
 91
        4
 64
     7
 65
   257
 75
     1
175
     1
 42
1.0
 92
        8
 66
     7
 43
1.0
 76
     1
 77
     6
 78
     2
 67
     7
 79
     5
170
     0
171
     0
290
     0
174
     0
 93
        1
 44
-50.0
173
     0
291
     1
 45
0.0
1001
ACAD
1000
AcDbSavedByObjectVersion
1070
     0
  0
VISUALSTYLE
  5
1B9D
102
{ACAD_XDICTIONARY
360
20B1
102
}
102
{ACAD_REACTORS
330
1B85
102
}
330
1B85
100
AcDbVisualStyle
  2
EdgeColorOff
 70
    22
 71
     2
 72
     2
 73
     0
 90
        0
 40
-0.6
 41
-30.0
 62
     5
 63
     7
 74
     1
 91
        4
 64
     7
 65
   257
 75
     1
175
     1
 42
1.0
 92
        8
 66
     7
 43
1.0
 76
     1
 77
     6
 78
     2
 67
     7
 79
     5
170
     0
171
     0
290
     0
174
     0
 93
        1
 44
0.0
173
     0
291
     1
 45
0.0
1001
ACAD
1000
AcDbSavedByObjectVersion
1070
     0
  0
VISUALSTYLE
  5
1B94
102
{ACAD_XDICTIONARY
360
209F
102
}
102
{ACAD_REACTORS
330
1B85
102
}
330
1B85
100
AcDbVisualStyle
  2
Facepattern
 70
    15
 71
     2
 72
     2
 73
     0
 90
        0
 40
-0.6
 41
-30.0
 62
     5
 63
     7
 74
     1
 91
        4
 64
     7
 65
   257
 75
     1
175
     1
 42
1.0
 92
        8
 66
     7
 43
1.0
 76
     1
 77
     6
 78
     2
 67
     7
 79
     5
170
     0
171
     0
290
     0
174
     0
 93
        1
 44
0.0
173
     0
291
     1
 45
0.0
1001
ACAD
1000
AcDbSavedByObjectVersion
1070
     0
  0
VISUALSTYLE
  5
1B86
102
{ACAD_XDICTIONARY
360
2083
102
}
102
{ACAD_REACTORS
330
1B85
102
}
330
1B85
100
AcDbVisualStyle
  2
Flat
 70
     0
 71
     2
 72
     1
 73
     1
 90
        2
 40
-0.6
 41
30.0
 62
     5
 63
     7
 74
     0
 91
        0
 64
     7
 65
   257
 75
     1
175
     1
 42
1.0
 92
        8
 66
     7
 43
1.0
 76
     1
 77
     6
 78
     2
 67
     7
 79
     5
170
     0
171
     0
290
     0
174
     0
 93
       13
 44
0.0
173
     0
291
     1
 45
0.0
1001
ACAD
1000
AcDbSavedByObjectVersion
1070
     0
  0
VISUALSTYLE
  5
1B87
102
{ACAD_XDICTIONARY
360
2085
102
}
102
{ACAD_REACTORS
330
1B85
102
}
330
1B85
100
AcDbVisualStyle
  2
FlatWithEdges
 70
     1
 71
     2
 72
     1
 73
     1
 90
        2
 40
-0.6
 41
30.0
 62
     5
 63
     7
 74
     1
 91
        0
 64
     7
 65
   257
 75
     1
175
     1
 42
1.0
 92
        0
 66
   257
 43
1.0
 76
     1
 77
     6
 78
     2
 67
     7
 79
     5
170
     0
171
     0
290
     0
174
     0
 93
       13
 44
0.0
173
     0
291
     1
 45
0.0
1001
ACAD
1000
AcDbSavedByObjectVersion
1070
     0
  0
VISUALSTYLE
  5
1B88
102
{ACAD_XDICTIONARY
360
2087
102
}
102
{ACAD_REACTORS
330
1B85
102
}
330
1B85
100
AcDbVisualStyle
  2
Gouraud
 70
     2
 71
     2
 72
     2
 73
     1
 90
        2
 40
-0.6
 41
30.0
 62
     5
 63
     7
 74
     0
 91
        0
 64
     7
 65
   257
 75
     1
175
     1
 42
1.0
 92
        0
 66
     7
 43
1.0
 76
     1
 77
     6
 78
     2
 67
     7
 79
     5
170
     0
171
     0
290
     0
174
     0
 93
       13
 44
0.0
173
     0
291
     1
 45
0.0
1001
ACAD
1000
AcDbSavedByObjectVersion
1070
     0
  0
VISUALSTYLE
  5
1B89
102
{ACAD_XDICTIONARY
360
2089
102
}
102
{ACAD_REACTORS
330
1B85
102
}
330
1B85
100
AcDbVisualStyle
  2
GouraudWithEdges
 70
     3
 71
     2
 72
     2
 73
     1
 90
        2
 40
-0.6
 41
30.0
 62
     5
 63
     7
 74
     1
 91
        0
 64
     7
 65
   257
 75
     1
175
     1
 42
1.0
 92
        0
 66
   257
 43
1.0
 76
     1
 77
     6
 78
     2
 67
     7
 79
     5
170
     0
171
     0
290
     0
174
     0
 93
       13
 44
0.0
173
     0
291
     1
 45
0.0
1001
ACAD
1000
AcDbSavedByObjectVersion
1070
     0
  0
VISUALSTYLE
  5
1B8D
102
{ACAD_XDICTIONARY
360
2091
102
}
102
{ACAD_REACTORS
330
1B85
102
}
330
1B85
100
AcDbVisualStyle
  2
Hidden
 70
     6
 71
     1
 72
     2
 73
     2
 90
        0
 40
-0.6
 41
-30.0
 62
     5
 63
     7
 74
     2
 91
        2
 64
     7
 65
   257
 75
     2
175
     1
 42
40.0
 92
        0
 66
   257
 43
1.0
 76
     1
 77
     6
 78
     2
 67
     7
 79
     3
170
     0
171
     0
290
     0
174
     0
 93
        1
 44
0.0
173
     0
291
     0
 45
0.0
1001
ACAD
1000
AcDbSavedByObjectVersion
1070
     0
  0
VISUALSTYLE
  5
1B9B
102
{ACAD_XDICTIONARY
360
20AD
102
}
102
{ACAD_REACTORS
330
1B85
102
}
330
1B85
100
AcDbVisualStyle
  2
JitterOff
 70
    20
 71
     2
 72
     2
 73
     0
 90
        0
 40
-0.6
 41
-30.0
 62
     5
 63
     7
 74
     1
 91
        4
 64
     7
 65
   257
 75
     1
175
     1
 42
1.0
 92
       10
 66
     7
 43
1.0
 76
     1
 77
     6
 78
     2
 67
     7
 79
     5
170
     0
171
     0
290
     0
174
     0
 93
        1
 44
0.0
173
     0
291
     1
 45
0.0
1001
ACAD
1000
AcDbSavedByObjectVersion
1070
     0
  0
VISUALSTYLE
  5
1B93
102
{ACAD_XDICTIONARY
360
209D
102
}
102
{ACAD_REACTORS
330
1B85
102
}
330
1B85
100
AcDbVisualStyle
  2
Linepattern
 70
    14
 71
     2
 72
     2
 73
     0
 90
        0
 40
-0.6
 41
-30.0
 62
     5
 63
     7
 74
     1
 91
        4
 64
     7
 65
   257
 75
     7
175
     7
 42
1.0
 92
        8
 66
     7
 43
1.0
 76
     1
 77
     6
 78
     2
 67
     7
 79
     5
170
     0
171
     0
290
     0
174
     0
 93
        1
 44
0.0
173
     0
291
     1
 45
0.0
1001
ACAD
1000
AcDbSavedByObjectVersion
1070
     0
  0
VISUALSTYLE
  5
1B9C
102
{ACAD_XDICTIONARY
360
20AF
102
}
102
{ACAD_REACTORS
330
1B85
102
}
330
1B85
100
AcDbVisualStyle
  2
OverhangOff
 70
    21
 71
     2
 72
     2
 73
     0
 90
        0
 40
-0.6
 41
-30.0
 62
     5
 63
     7
 74
     1
 91
        4
 64
     7
 65
   257
 75
     1
175
     1
 42
1.0
 92
        9
 66
     7
 43
1.0
 76
     1
 77
     6
 78
     2
 67
     7
 79
     5
170
     0
171
     0
290
     0
174
     0
 93
        1
 44
0.0
173
     0
291
     1
 45
0.0
1001
ACAD
1000
AcDbSavedByObjectVersion
1070
     0
  0
VISUALSTYLE
  5
1B8F
102
{ACAD_XDICTIONARY
360
2095
102
}
102
{ACAD_REACTORS
330
1B85
102
}
330
1B85
100
AcDbVisualStyle
  2
Realistic
 70
     8
 71
     2
 72
     2
 73
     0
 90
        2
 40
-0.6
 41
30.0
 62
     5
 63
     7
 74
     0
 91
        0
 64
     7
 65
   257
 75
     1
175
     1
 42
1.0
 92
        8
 66
   257
 43
1.0
 76
     1
 77
     6
 78
     2
 67
     7
 79
     3
170
     0
171
     0
290
     0
174
     0
 93
       13
 44
0.0
173
     0
291
     0
 45
0.0
1001
ACAD
1000
AcDbSavedByObjectVersion
1070
     0
  0
VISUALSTYLE
  5
1B9A
102
{ACAD_XDICTIONARY
360
20AB
102
}
102
{ACAD_REACTORS
330
1B85
102
}
330
1B85
100
AcDbVisualStyle
  2
Shaded
 70
    27
 71
     2
 72
     2
 73
     1
 90
        2
 40
-0.6
 41
30.0
 62
     5
 63
     7
 74
     0
 91
        4
 64
     7
 65
   257
 75
     1
175
     1
 42
1.0
 92
        8
 66
   257
 43
1.0
 76
     1
 77
     6
 78
     2
 67
     8
 79
     3
170
     0
171
     0
290
     0
174
     0
 93
        5
 44
0.0
173
     0
291
     0
 45
0.0
1001
ACAD
1000
AcDbSavedByObjectVersion
1070
     0
  0
VISUALSTYLE
  5
1B99
102
{ACAD_XDICTIONARY
360
20A9
102
}
102
{ACAD_REACTORS
330
1B85
102
}
330
1B85
100
AcDbVisualStyle
  2
Shaded with edges
 70
    26
 71
     2
 72
     2
 73
     1
 90
        2
 40
-0.6
 41
30.0
 62
     5
 63
     7
 74
     1
 91
       10
 64
     7
 65
   257
 75
     2
175
     1
 42
1.0
 92
        8
 66
   257
 43
1.0
 76
     1
 77
     6
 78
     2
 67
     7
 79
     3
170
     0
171
     0
290
     0
174
     0
 93
        5
 44
0.0
173
     0
291
     0
 45
0.0
1001
ACAD
1000
AcDbSavedByObjectVersion
1070
     0
  0
VISUALSTYLE
  5
1B96
102
{ACAD_XDICTIONARY
360
20A3
102
}
102
{ACAD_REACTORS
330
1B85
102
}
330
1B85
100
AcDbVisualStyle
  2
Shades of Gray
 70
    23
 71
     2
 72
     2
 73
     3
 90
        0
 40
-0.6
 41
-30.0
 62
     5
 63
     7
 74
     2
 91
        2
 64
     7
 65
     7
 75
     1
175
     1
 42
40.0
 92
        8
 66
     7
 43
1.0
 76
     1
 77
     6
 78
     2
 67
     7
 79
     3
170
     0
171
     0
290
     0
174
     0
 93
        1
 44
0.0
173
     0
291
     0
 45
0.0
1001
ACAD
1000
AcDbSavedByObjectVersion
1070
     0
  0
VISUALSTYLE
  5
1B97
102
{ACAD_XDICTIONARY
360
20A5
102
}
102
{ACAD_REACTORS
330
1B85
102
}
330
1B85
100
AcDbVisualStyle
  2
Sketchy
 70
    24
 71
     1
 72
     2
 73
     2
 90
        0
 40
-0.6
 41
-30.0
 62
     5
 63
     7
 74
     2
 91
        2
 64
     7
 65
     7
 75
     1
175
     1
 42
40.0
 92
       11
 66
     7
 43
1.0
 76
     1
 77
     6
 78
     2
 67
     7
 79
     6
170
     0
171
     0
290
     0
174
     0
 93
        1
 44
0.0
173
     0
291
     0
 45
0.0
1001
ACAD
1000
AcDbSavedByObjectVersion
1070
     0
  0
VISUALSTYLE
  5
1B92
102
{ACAD_XDICTIONARY
360
209B
102
}
102
{ACAD_REACTORS
330
1B85
102
}
330
1B85
100
AcDbVisualStyle
  2
Thicken
 70
    13
 71
     2
 72
     2
 73
     0
 90
        0
 40
-0.6
 41
-30.0
 62
     5
 63
     7
 74
     1
 91
        4
 64
     7
 65
   257
 75
     1
175
     1
 42
1.0
 92
       12
 66
     7
 43
1.0
 76
     1
 77
     6
 78
     2
 67
     7
 79
     5
170
     0
171
     0
290
     0
174
     0
 93
        1
 44
0.0
173
     0
291
     1
 45
0.0
1001
ACAD
1000
AcDbSavedByObjectVersion
1070
     0
  0
VISUALSTYLE
  5
1B8C
102
{ACAD_XDICTIONARY
360
208F
102
}
102
{ACAD_REACTORS
330
1B85
102
}
330
1B85
100
AcDbVisualStyle
  2
Wireframe
 70
     5
 71
     0
 72
     2
 73
     0
 90
        0
 40
-0.6
 41
-30.0
 62
     5
 63
     7
 74
     1
 91
        4
 64
     7
 65
   257
 75
     1
175
     1
 42
1.0
 92
        0
 66
   257
 43
1.0
 76
     1
 77
     6
 78
     2
 67
     7
 79
     3
170
     0
171
     0
290
     0
174
     0
 93
        1
 44
0.0
173
     0
291
     0
 45
0.0
1001
ACAD
1000
AcDbSavedByObjectVersion
1070
     0
  0
VISUALSTYLE
  5
1B98
102
{ACAD_XDICTIONARY
360
20A7
102
}
102
{ACAD_REACTORS
330
1B85
102
}
330
1B85
100
AcDbVisualStyle
  2
X-Ray
 70
    25
 71
     2
 72
     2
 73
     1
 90
        1
 40
0.5
 41
-30.0
 62
     5
 63
     7
 74
     1
 91
        0
 64
     7
 65
   257
 75
     1
175
     1
 42
1.0
 92
        8
 66
     7
 43
1.0
 76
     1
 77
     6
 78
     2
 67
     7
 79
     3
170
     0
171
     0
290
     0
174
     0
 93
       13
 44
0.0
173
     0
291
     0
 45
0.0
1001
ACAD
1000
AcDbSavedByObjectVersion
1070
     0
  0
DICTIONARYVAR
  5
1C24
102
{ACAD_REACTORS
330
1C1F
102
}
330
1C1F
100
DictionaryVariables
280
     0
  1
1:1
  0
DICTIONARYVAR
  5
1C21
102
{ACAD_REACTORS
330
1C1F
102
}
330
1C1F
100
DictionaryVariables
280
     0
  1
STANDARD
  0
DICTIONARYVAR
  5
1C20
102
{ACAD_REACTORS
330
1C1F
102
}
330
1C1F
100
DictionaryVariables
280
     0
  1
STANDARD
  0
DICTIONARYVAR
  5
1C22
102
{ACAD_REACTORS
330
1C1F
102
}
330
1C1F
100
DictionaryVariables
280
     0
  1
Metric50
  0
DICTIONARYVAR
  5
1C23
102
{ACAD_REACTORS
330
1C1F
102
}
330
1C1F
100
DictionaryVariables
280
     0
  1
Metric50
  0
DICTIONARYVAR
  5
1C27
102
{ACAD_REACTORS
330
1C1F
102
}
330
1C1F
100
DictionaryVariables
280
     0
  1
1
  0
DICTIONARYVAR
  5
1C26
102
{ACAD_REACTORS
330
1C1F
102
}
330
1C1F
100
DictionaryVariables
280
     0
  1
0
  0
DICTIONARYVAR
  5
1C25
102
{ACAD_REACTORS
330
1C1F
102
}
330
1C1F
100
DictionaryVariables
280
     0
  1
127
  0
DICTIONARYVAR
  5
2076
102
{ACAD_REACTORS
330
1C1F
102
}
330
1C1F
100
DictionaryVariables
280
     0
  1
2
  0
XRECORD
  5
1E22
102
{ACAD_XDICTIONARY
360
1E23
102
}
102
{ACAD_REACTORS
330
1C39
102
}
330
1C39
100
AcDbXrecord
280
     1
 91
      535
301

290
     0
302
本体
330
1AEE
 90
        8
 62
    51
370
    13
331
8
  1
色_51
440
        0
330
1AE9
 90
        8
 62
   112
370
    13
331
F2
  1
色_112
440
        0
330
1AE4
 90
        8
 62
   112
370
    13
331
8
  1
色_112
440
        0
330
1ADF
 90
        8
 62
     1
370
     5
331
148
  1
色_1
440
        0
330
0
 90
        8
 62
     3
370
     9
331
8
  1
色_3
440
        0
330
CE
 90
        0
 62
     7
370
    -3
331
8
  1
色_7
440
        0
330
11
 90
        8
 62
     7
370
    -3
331
8
  1
色_7
440
        0
330
65C
 90
        8
 62
     4
370
     5
331
8
  1
色_4
440
        0
330
0
 90
        8
 62
    31
370
     9
331
8
  1
色_31
440
        0
330
4
 90
        8
 62
     2
370
     9
331
8
  1
色_2
440
        0
330
80
 90
        8
 62
     7
370
    13
331
8
  1
色_7
440
        0
330
76
 90
        8
 62
     7
370
    -3
331
8
  1
色_7
440
        0
  0
ACDBASSOCNETWORK
  5
1E35
102
{ACAD_REACTORS
330
1E34
102
}
330
1E34
100
AcDbAssocAction
 90
        1
 90
        1
330
1E37
360
0
 90
        1
 90
        0
 90
        0
100
AcDbAssocNetwork
 90
        0
 90
        2
 90
        2
360
1E38
360
1F5C
 90
        2
330
1E38
330
1F5C
  0
XRECORD
  5
20BB
102
{ACAD_REACTORS
330
20BA
102
}
330
20BA
100
AcDbXrecord
280
     1
1070
     0
1070
     1
1070
     1
  0
XRECORD
  5
20BD
102
{ACAD_REACTORS
330
20BC
102
}
330
20BC
100
AcDbXrecord
280
     1
1070
     0
1070
     1
1070
     1
  0
DICTIONARY
  5
20B8
330
1BB8
100
AcDbDictionary
280
     1
281
     1
  3
ACAD_XREC_ROUNDTRIP
360
20B9
  0
DICTIONARY
  5
207C
330
16BA
100
AcDbDictionary
280
     1
281
     1
  3
ACAD_XREC_ROUNDTRIP
360
207D
  0
DICTIONARY
  5
207E
330
16C0
100
AcDbDictionary
280
     1
281
     1
  3
ACAD_XREC_ROUNDTRIP
360
207F
  0
DICTIONARY
  5
207A
330
16B3
100
AcDbDictionary
280
     1
281
     1
  3
ACAD_XREC_ROUNDTRIP
360
207B
  0
DICTIONARY
  5
1B76
330
1B75
100
AcDbDictionary
280
     1
281
     1
  3
ACAD_XREC_ROUNDTRIP
360
2081
  3
BUMPTILE
360
1B78
  3
DIFFUSETILE
360
1B77
  3
OPACITYTILE
360
1B7B
  3
REFLECTIONTILE
360
1B7A
  3
REFRACTIONTILE
360
1B7C
  3
SPECULARTILE
360
1B79
  0
DICTIONARY
  5
1B6E
330
1B6D
100
AcDbDictionary
280
     1
281
     1
  3
ACAD_XREC_ROUNDTRIP
360
2080
  3
BUMPTILE
360
1B70
  3
DIFFUSETILE
360
1B6F
  3
OPACITYTILE
360
1B73
  3
REFLECTIONTILE
360
1B72
  3
REFRACTIONTILE
360
1B74
  3
SPECULARTILE
360
1B71
  0
DICTIONARY
  5
1B7E
330
1B7D
100
AcDbDictionary
280
     1
281
     1
  3
ACAD_XREC_ROUNDTRIP
360
2082
  3
BUMPTILE
360
1B80
  3
DIFFUSETILE
360
1B7F
  3
OPACITYTILE
360
1B83
  3
REFLECTIONTILE
360
1B82
  3
REFRACTIONTILE
360
1B84
  3
SPECULARTILE
360
1B81
  0
DICTIONARY
  5
20B4
330
1BB4
100
AcDbDictionary
280
     1
281
     1
  3
ACAD_XREC_ROUNDTRIP
360
20B5
  0
DICTIONARY
  5
20B6
330
1BB6
100
AcDbDictionary
280
     1
281
     1
  3
ACAD_XREC_ROUNDTRIP
360
20B7
  0
DICTIONARY
  5
1BD8
330
1BA0
100
AcDbDictionary
280
     1
281
     1
  3
ACAD_ROUNDTRIP_2008_TABLESTYLE_CELLSTYLEMAP
360
2077
  3
ACAD_XREC_ROUNDTRIP
360
20B3
  0
DICTIONARY
  5
208D
330
1B8B
100
AcDbDictionary
280
     1
281
     1
  3
ACAD_XREC_ROUNDTRIP
360
208E
  0
DICTIONARY
  5
208B
330
1B8A
100
AcDbDictionary
280
     1
281
     1
  3
ACAD_XREC_ROUNDTRIP
360
208C
  0
DICTIONARY
  5
2099
330
1B91
100
AcDbDictionary
280
     1
281
     1
  3
ACAD_XREC_ROUNDTRIP
360
209A
  0
DICTIONARY
  5
20A1
330
1B95
100
AcDbDictionary
280
     1
281
     1
  3
ACAD_XREC_ROUNDTRIP
360
20A2
  0
DICTIONARY
  5
2093
330
1B8E
100
AcDbDictionary
280
     1
281
     1
  3
ACAD_XREC_ROUNDTRIP
360
2094
  0
DICTIONARY
  5
2097
330
1B90
100
AcDbDictionary
280
     1
281
     1
  3
ACAD_XREC_ROUNDTRIP
360
2098
  0
DICTIONARY
  5
20B1
330
1B9D
100
AcDbDictionary
280
     1
281
     1
  3
ACAD_XREC_ROUNDTRIP
360
20B2
  0
DICTIONARY
  5
209F
330
1B94
100
AcDbDictionary
280
     1
281
     1
  3
ACAD_XREC_ROUNDTRIP
360
20A0
  0
DICTIONARY
  5
2083
330
1B86
100
AcDbDictionary
280
     1
281
     1
  3
ACAD_XREC_ROUNDTRIP
360
2084
  0
DICTIONARY
  5
2085
330
1B87
100
AcDbDictionary
280
     1
281
     1
  3
ACAD_XREC_ROUNDTRIP
360
2086
  0
DICTIONARY
  5
2087
330
1B88
100
AcDbDictionary
280
     1
281
     1
  3
ACAD_XREC_ROUNDTRIP
360
2088
  0
DICTIONARY
  5
2089
330
1B89
100
AcDbDictionary
280
     1
281
     1
  3
ACAD_XREC_ROUNDTRIP
360
208A
  0
DICTIONARY
  5
2091
330
1B8D
100
AcDbDictionary
280
     1
281
     1
  3
ACAD_XREC_ROUNDTRIP
360
2092
  0
DICTIONARY
  5
20AD
330
1B9B
100
AcDbDictionary
280
     1
281
     1
  3
ACAD_XREC_ROUNDTRIP
360
20AE
  0
DICTIONARY
  5
209D
330
1B93
100
AcDbDictionary
280
     1
281
     1
  3
ACAD_XREC_ROUNDTRIP
360
209E
  0
DICTIONARY
  5
20AF
330
1B9C
100
AcDbDictionary
280
     1
281
     1
  3
ACAD_XREC_ROUNDTRIP
360
20B0
  0
DICTIONARY
  5
2095
330
1B8F
100
AcDbDictionary
280
     1
281
     1
  3
ACAD_XREC_ROUNDTRIP
360
2096
  0
DICTIONARY
  5
20AB
330
1B9A
100
AcDbDictionary
280
     1
281
     1
  3
ACAD_XREC_ROUNDTRIP
360
20AC
  0
DICTIONARY
  5
20A9
330
1B99
100
AcDbDictionary
280
     1
281
     1
  3
ACAD_XREC_ROUNDTRIP
360
20AA
  0
DICTIONARY
  5
20A3
330
1B96
100
AcDbDictionary
280
     1
281
     1
  3
ACAD_XREC_ROUNDTRIP
360
20A4
  0
DICTIONARY
  5
20A5
330
1B97
100
AcDbDictionary
280
     1
281
     1
  3
ACAD_XREC_ROUNDTRIP
360
20A6
  0
DICTIONARY
  5
209B
330
1B92
100
AcDbDictionary
280
     1
281
     1
  3
ACAD_XREC_ROUNDTRIP
360
209C
  0
DICTIONARY
  5
208F
330
1B8C
100
AcDbDictionary
280
     1
281
     1
  3
ACAD_XREC_ROUNDTRIP
360
2090
  0
DICTIONARY
  5
20A7
330
1B98
100
AcDbDictionary
280
     1
281
     1
  3
ACAD_XREC_ROUNDTRIP
360
20A8
  0
DICTIONARY
  5
1E23
330
1E22
100
AcDbDictionary
280
     1
281
     1
  3
AcadLayerStateAnnoScale
360
1E24
  0
ACDBASSOCACTION
  5
1E38
330
1E35
100
AcDbAssocAction
 90
        1
 90
        1
330
1E35
360
1E39
 90
        1
 90
        3
 90
        3
360
1E3C
360
1E3D
360
1E3E
  0
ACDBASSOCACTION
  5
1F5C
330
1E35
100
AcDbAssocAction
 90
        1
 90
        1
330
1E35
360
1F5D
 90
        2
 90
        3
 90
        3
360
1F60
360
1F61
360
1F62
  0
XRECORD
  5
20B9
102
{ACAD_REACTORS
330
20B8
102
}
330
20B8
100
AcDbXrecord
280
     1
102
DISPLAYNAME
  1
Metric50
102
FLAGS
 90
        0
  0
XRECORD
  5
207D
102
{ACAD_REACTORS
330
207C
102
}
330
207C
100
AcDbXrecord
280
     1
102
SHADEPLOT
 70
     0
102
SHADEPLOTRESLEVEL
 70
     2
102
SHADEPLOTCUSTOMDPI
 70
   300
  0
XRECORD
  5
207F
102
{ACAD_REACTORS
330
207E
102
}
330
207E
100
AcDbXrecord
280
     1
102
SHADEPLOT
 70
     0
102
SHADEPLOTRESLEVEL
 70
     2
102
SHADEPLOTCUSTOMDPI
 70
   300
  0
XRECORD
  5
207B
102
{ACAD_REACTORS
330
207A
102
}
330
207A
100
AcDbXrecord
280
     1
102
SHADEPLOT
 70
     0
102
SHADEPLOTRESLEVEL
 70
     2
102
SHADEPLOTCUSTOMDPI
 70
   300
  0
XRECORD
  5
2081
102
{ACAD_REACTORS
330
1B76
102
}
330
1B76
100
AcDbXrecord
280
     1
102
MATERIAL
148
0.0
149
0.0
149
0.0
 93
        0
 94
      127
282
     0
 72
     0
 77
     0
171
     0
175
     0
179
     0
273
     0
  0
XRECORD
  5
1B78
102
{ACAD_REACTORS
330
1B76
102
}
330
1B76
100
AcDbXrecord
280
     1
270
     1
271
     1
  0
XRECORD
  5
1B77
102
{ACAD_REACTORS
330
1B76
102
}
330
1B76
100
AcDbXrecord
280
     1
270
     1
271
     1
  0
XRECORD
  5
1B7B
102
{ACAD_REACTORS
330
1B76
102
}
330
1B76
100
AcDbXrecord
280
     1
270
     1
271
     1
  0
XRECORD
  5
1B7A
102
{ACAD_REACTORS
330
1B76
102
}
330
1B76
100
AcDbXrecord
280
     1
270
     1
271
     1
  0
XRECORD
  5
1B7C
102
{ACAD_REACTORS
330
1B76
102
}
330
1B76
100
AcDbXrecord
280
     1
270
     1
271
     1
  0
XRECORD
  5
1B79
102
{ACAD_REACTORS
330
1B76
102
}
330
1B76
100
AcDbXrecord
280
     1
270
     1
271
     1
  0
XRECORD
  5
2080
102
{ACAD_REACTORS
330
1B6E
102
}
330
1B6E
100
AcDbXrecord
280
     1
102
MATERIAL
148
0.0
149
0.0
149
0.0
 93
        0
 94
      127
282
     0
 72
     0
 77
     0
171
     0
175
     0
179
     0
273
     0
  0
XRECORD
  5
1B70
102
{ACAD_REACTORS
330
1B6E
102
}
330
1B6E
100
AcDbXrecord
280
     1
270
     1
271
     1
  0
XRECORD
  5
1B6F
102
{ACAD_REACTORS
330
1B6E
102
}
330
1B6E
100
AcDbXrecord
280
     1
270
     1
271
     1
  0
XRECORD
  5
1B73
102
{ACAD_REACTORS
330
1B6E
102
}
330
1B6E
100
AcDbXrecord
280
     1
270
     1
271
     1
  0
XRECORD
  5
1B72
102
{ACAD_REACTORS
330
1B6E
102
}
330
1B6E
100
AcDbXrecord
280
     1
270
     1
271
     1
  0
XRECORD
  5
1B74
102
{ACAD_REACTORS
330
1B6E
102
}
330
1B6E
100
AcDbXrecord
280
     1
270
     1
271
     1
  0
XRECORD
  5
1B71
102
{ACAD_REACTORS
330
1B6E
102
}
330
1B6E
100
AcDbXrecord
280
     1
270
     1
271
     1
  0
XRECORD
  5
2082
102
{ACAD_REACTORS
330
1B7E
102
}
330
1B7E
100
AcDbXrecord
280
     1
102
MATERIAL
148
0.0
149
0.0
149
0.0
 93
        0
 94
      127
282
     0
 72
     0
 77
     0
171
     0
175
     0
179
     0
273
     0
  0
XRECORD
  5
1B80
102
{ACAD_REACTORS
330
1B7E
102
}
330
1B7E
100
AcDbXrecord
280
     1
270
     1
271
     1
  0
XRECORD
  5
1B7F
102
{ACAD_REACTORS
330
1B7E
102
}
330
1B7E
100
AcDbXrecord
280
     1
270
     1
271
     1
  0
XRECORD
  5
1B83
102
{ACAD_REACTORS
330
1B7E
102
}
330
1B7E
100
AcDbXrecord
280
     1
270
     1
271
     1
  0
XRECORD
  5
1B82
102
{ACAD_REACTORS
330
1B7E
102
}
330
1B7E
100
AcDbXrecord
280
     1
270
     1
271
     1
  0
XRECORD
  5
1B84
102
{ACAD_REACTORS
330
1B7E
102
}
330
1B7E
100
AcDbXrecord
280
     1
270
     1
271
     1
  0
XRECORD
  5
1B81
102
{ACAD_REACTORS
330
1B7E
102
}
330
1B7E
100
AcDbXrecord
280
     1
270
     1
271
     1
  0
XRECORD
  5
20B5
102
{ACAD_REACTORS
330
20B4
102
}
330
20B4
100
AcDbXrecord
280
     1
102
ACAD_ROUNDTRIP_2012_MLEADER_STYLE
298
     1
  0
XRECORD
  5
20B7
102
{ACAD_REACTORS
330
20B6
102
}
330
20B6
100
AcDbXrecord
280
     1
102
DISPLAYNAME
  1
Metric50
102
FLAGS
 90
        0
  0
CELLSTYLEMAP
  5
2077
102
{ACAD_REACTORS
330
1BD8
102
}
330
1BD8
100
AcDbCellStyleMap
 90
        3
300
CELLSTYLE
  1
TABLEFORMAT_BEGIN
 90
        5
170
     1
 91
        0
 92
    32768
 62
   257
 93
        1
300
CONTENTFORMAT
  1
CONTENTFORMAT_BEGIN
 90
        0
 91
        0
 92
      512
 93
        0
300

 40
0.0
140
1.0
 94
        5
 62
     0
340
9
144
6.0
309
CONTENTFORMAT_END
171
     1
301
MARGIN
  1
CELLMARGIN_BEGIN
 40
1.5
 40
1.5
 40
1.5
 40
1.5
 40
4.5
 40
4.5
309
CELLMARGIN_END
 94
        6
 95
        1
302
GRIDFORMAT
  1
GRIDFORMAT_BEGIN
 90
        0
 91
        1
 62
     0
 92
       -2
340
0
 93
        0
 40
1.125
309
GRIDFORMAT_END
 95
        2
302
GRIDFORMAT
  1
GRIDFORMAT_BEGIN
 90
        0
 91
        1
 62
     0
 92
       -2
340
0
 93
        0
 40
1.125
309
GRIDFORMAT_END
 95
        4
302
GRIDFORMAT
  1
GRIDFORMAT_BEGIN
 90
        0
 91
        1
 62
     0
 92
       -2
340
0
 93
        0
 40
1.125
309
GRIDFORMAT_END
 95
        8
302
GRIDFORMAT
  1
GRIDFORMAT_BEGIN
 90
        0
 91
        1
 62
     0
 92
       -2
340
0
 93
        0
 40
1.125
309
GRIDFORMAT_END
 95
       16
302
GRIDFORMAT
  1
GRIDFORMAT_BEGIN
 90
        0
 91
        1
 62
     0
 92
       -2
340
0
 93
        0
 40
1.125
309
GRIDFORMAT_END
 95
       32
302
GRIDFORMAT
  1
GRIDFORMAT_BEGIN
 90
        0
 91
        1
 62
     0
 92
       -2
340
0
 93
        0
 40
1.125
309
GRIDFORMAT_END
309
TABLEFORMAT_END
  1
CELLSTYLE_BEGIN
 90
        1
 91
        1
300
_TITLE
309
CELLSTYLE_END
300
CELLSTYLE
  1
TABLEFORMAT_BEGIN
 90
        5
170
     1
 91
        0
 92
        0
 62
   257
 93
        1
300
CONTENTFORMAT
  1
CONTENTFORMAT_BEGIN
 90
        0
 91
        0
 92
      512
 93
        0
300

 40
0.0
140
1.0
 94
        5
 62
     0
340
9
144
4.5
309
CONTENTFORMAT_END
171
     1
301
MARGIN
  1
CELLMARGIN_BEGIN
 40
1.5
 40
1.5
 40
1.5
 40
1.5
 40
4.5
 40
4.5
309
CELLMARGIN_END
 94
        6
 95
        1
302
GRIDFORMAT
  1
GRIDFORMAT_BEGIN
 90
        0
 91
        1
 62
     0
 92
       -2
340
0
 93
        0
 40
1.125
309
GRIDFORMAT_END
 95
        2
302
GRIDFORMAT
  1
GRIDFORMAT_BEGIN
 90
        0
 91
        1
 62
     0
 92
       -2
340
0
 93
        0
 40
1.125
309
GRIDFORMAT_END
 95
        4
302
GRIDFORMAT
  1
GRIDFORMAT_BEGIN
 90
        0
 91
        1
 62
     0
 92
       -2
340
0
 93
        0
 40
1.125
309
GRIDFORMAT_END
 95
        8
302
GRIDFORMAT
  1
GRIDFORMAT_BEGIN
 90
        0
 91
        1
 62
     0
 92
       -2
340
0
 93
        0
 40
1.125
309
GRIDFORMAT_END
 95
       16
302
GRIDFORMAT
  1
GRIDFORMAT_BEGIN
 90
        0
 91
        1
 62
     0
 92
       -2
340
0
 93
        0
 40
1.125
309
GRIDFORMAT_END
 95
       32
302
GRIDFORMAT
  1
GRIDFORMAT_BEGIN
 90
        0
 91
        1
 62
     0
 92
       -2
340
0
 93
        0
 40
1.125
309
GRIDFORMAT_END
309
TABLEFORMAT_END
  1
CELLSTYLE_BEGIN
 90
        2
 91
        1
300
_HEADER
309
CELLSTYLE_END
300
CELLSTYLE
  1
TABLEFORMAT_BEGIN
 90
        5
170
     1
 91
        0
 92
        0
 62
   257
 93
        1
300
CONTENTFORMAT
  1
CONTENTFORMAT_BEGIN
 90
        0
 91
        0
 92
      512
 93
        0
300

 40
0.0
140
1.0
 94
        2
 62
     0
340
9
144
4.5
309
CONTENTFORMAT_END
171
     1
301
MARGIN
  1
CELLMARGIN_BEGIN
 40
1.5
 40
1.5
 40
1.5
 40
1.5
 40
4.5
 40
4.5
309
CELLMARGIN_END
 94
        6
 95
        1
302
GRIDFORMAT
  1
GRIDFORMAT_BEGIN
 90
        0
 91
        1
 62
     0
 92
       -2
340
0
 93
        0
 40
1.125
309
GRIDFORMAT_END
 95
        2
302
GRIDFORMAT
  1
GRIDFORMAT_BEGIN
 90
        0
 91
        1
 62
     0
 92
       -2
340
0
 93
        0
 40
1.125
309
GRIDFORMAT_END
 95
        4
302
GRIDFORMAT
  1
GRIDFORMAT_BEGIN
 90
        0
 91
        1
 62
     0
 92
       -2
340
0
 93
        0
 40
1.125
309
GRIDFORMAT_END
 95
        8
302
GRIDFORMAT
  1
GRIDFORMAT_BEGIN
 90
        0
 91
        1
 62
     0
 92
       -2
340
0
 93
        0
 40
1.125
309
GRIDFORMAT_END
 95
       16
302
GRIDFORMAT
  1
GRIDFORMAT_BEGIN
 90
        0
 91
        1
 62
     0
 92
       -2
340
0
 93
        0
 40
1.125
309
GRIDFORMAT_END
 95
       32
302
GRIDFORMAT
  1
GRIDFORMAT_BEGIN
 90
        0
 91
        1
 62
     0
 92
       -2
340
0
 93
        0
 40
1.125
309
GRIDFORMAT_END
309
TABLEFORMAT_END
  1
CELLSTYLE_BEGIN
 90
        3
 91
        2
300
_DATA
309
CELLSTYLE_END
  0
XRECORD
  5
20B3
102
{ACAD_REACTORS
330
1BD8
102
}
330
1BD8
100
AcDbXrecord
280
     1
102
ACAD_ROUNDTRIP_PRE2007_TABLESTYLE
 90
      512
 91
        0
  1

 92
      512
 93
        0
  2

 94
      512
 95
        0
  3

  0
XRECORD
  5
208E
102
{ACAD_REACTORS
330
208D
102
}
330
208D
100
AcDbXrecord
280
     1
102
RTVSPost2010Prop28
280
     1
102
RTVSPost2010PropOp28
 70
     1
102
RTVSPost2010Prop29
280
     1
102
RTVSPost2010PropOp29
 70
     1
102
RTVSPost2010Prop30
280
     0
102
RTVSPost2010PropOp30
 70
     1
102
RTVSPost2010Prop31
280
     0
102
RTVSPost2010PropOp31
 70
     1
102
RTVSPost2010Prop32
280
     0
102
RTVSPost2010PropOp32
 70
     1
102
RTVSPost2010Prop33
280
     0
102
RTVSPost2010PropOp33
 70
     1
102
RTVSPost2010Prop34
280
     0
102
RTVSPost2010PropOp34
 70
     1
102
RTVSPost2010Prop35
280
     0
102
RTVSPost2010PropOp35
 70
     1
102
RTVSPost2010Prop36
280
     0
102
RTVSPost2010PropOp36
 70
     1
102
RTVSPost2010Prop37
 90
       50
102
RTVSPost2010PropOp37
 70
     1
102
RTVSPost2010Prop38
140
0.0
102
RTVSPost2010PropOp38
 70
     1
102
RTVSPost2010Prop39
140
1.0
102
RTVSPost2010PropOp39
 70
     1
102
RTVSPost2010Prop40
 90
        0
102
RTVSPost2010PropOp40
 70
     1
102
RTVSPost2010Prop41ColorIndex
 90
       18
102
RTVSPost2010Prop41ColorRGB
 90
        0
102
RTVSPost2010PropOp41
 70
     1
102
RTVSPost2010Prop42
 90
       50
102
RTVSPost2010PropOp42
 70
     1
102
RTVSPost2010Prop43
 90
        3
102
RTVSPost2010PropOp43
 70
     1
102
RTVSPost2010Prop44ColorIndex
 90
        5
102
RTVSPost2010Prop44ColorRGB
 90
      255
102
RTVSPost2010PropOp44
 70
     1
102
RTVSPost2010Prop45
280
     0
102
RTVSPost2010PropOp45
 70
     1
102
RTVSPost2010Prop46
 90
       50
102
RTVSPost2010PropOp46
 70
     1
102
RTVSPost2010Prop47
 90
       50
102
RTVSPost2010PropOp47
 70
     1
102
RTVSPost2010Prop48
 90
       50
102
RTVSPost2010PropOp48
 70
     1
102
RTVSPost2010Prop49
280
     0
102
RTVSPost2010PropOp49
 70
     1
102
RTVSPost2010Prop50
 90
       50
102
RTVSPost2010PropOp50
 70
     1
102
RTVSPost2010Prop51ColorIndex
 90
      256
102
RTVSPost2010Prop51ColorRGB
 90
-16777216
102
RTVSPost2010PropOp51
 70
     0
102
RTVSPost2010Prop52
140
1.0
102
RTVSPost2010PropOp52
 70
     0
102
RTVSPost2010Prop53
 90
        2
102
RTVSPost2010PropOp53
 70
     1
102
RTVSPost2010Prop54
  1
strokes_ogs.tif
102
RTVSPost2010PropOp54
 70
     1
102
RTVSPost2010Prop55
280
     0
102
RTVSPost2010PropOp55
 70
     1
102
RTVSPost2010Prop56
140
1.0
102
RTVSPost2010PropOp56
 70
     1
102
RTVSPost2010Prop57
140
1.0
102
RTVSPost2010PropOp57
 70
     1
102
RTVSPropertyOp0
 70
     1
102
RTVSPropertyOp1
 70
     1
102
RTVSPropertyOp2
 70
     1
102
RTVSPropertyOp3
 70
     1
102
RTVSPropertyOp4
 70
     1
102
RTVSPropertyOp5
 70
     1
102
RTVSPropertyOp6
 70
     1
102
RTVSPropertyOp7
 70
     1
102
RTVSPropertyOp8
 70
     1
102
RTVSPropertyOp9
 70
     1
102
RTVSPropertyOp10
 70
     1
102
RTVSPropertyOp11
 70
     1
102
RTVSPropertyOp12
 70
     1
102
RTVSPropertyOp13
 70
     1
102
RTVSPropertyOp14
 70
     1
102
RTVSPropertyOp15
 70
     1
102
RTVSPropertyOp16
 70
     1
102
RTVSPropertyOp17
 70
     1
102
RTVSPropertyOp18
 70
     1
102
RTVSPropertyOp19
 70
     1
102
RTVSPropertyOp20
 70
     1
102
RTVSPropertyOp21
 70
     1
102
RTVSPropertyOp22
 70
     1
102
RTVSPropertyOp23
 70
     1
102
RTVSPropertyOp24
 70
     1
102
RTVSPropertyOp25
 70
     1
102
RTVSPropertyOp26
 70
     1
102
RTVSPropertyOp27
 70
     1
102
RTVSPropertyOp28
 70
     1
102
RTVSPropertyOp29
 70
     1
102
RTVSPropertyOp30
 70
     1
102
RTVSPropertyOp31
 70
     1
102
RTVSPropertyOp32
 70
     1
102
RTVSPropertyOp33
 70
     1
102
RTVSPropertyOp34
 70
     1
102
RTVSPropertyOp35
 70
     1
102
RTVSPropertyOp36
 70
     1
102
RTVSPropertyOp37
 70
     1
102
RTVSPropertyOp38
 70
     1
102
RTVSPropertyOp39
 70
     1
102
RTVSPropertyOp40
 70
     1
102
RTVSPropertyOp41
 70
     1
102
RTVSPropertyOp42
 70
     1
102
RTVSPropertyOp43
 70
     1
102
RTVSPropertyOp44
 70
     1
102
RTVSPropertyOp45
 70
     1
102
RTVSPropertyOp46
 70
     1
102
RTVSPropertyOp47
 70
     1
102
RTVSPropertyOp48
 70
     1
102
RTVSPropertyOp49
 70
     1
102
RTVSPropertyOp50
 70
     1
102
RTVSPropertyOp51
 70
     0
102
RTVSPropertyOp52
 70
     0
102
RTVSPropertyOp53
 70
     1
102
RTVSPropertyOp54
 70
     1
102
RTVSPropertyOp55
 70
     1
102
RTVSPropertyOp56
 70
     1
102
RTVSPropertyOp57
 70
     1
102
RTVSPropertyOp58
 70
     1
102
RTVSPropertyOp59
 70
     1
102
RTVSPropertyOp60
 70
     1
102
RTVSPropertyOp61
 70
     1
102
RTVSPropertyOp62
 70
     1
  0
XRECORD
  5
208C
102
{ACAD_REACTORS
330
208B
102
}
330
208B
100
AcDbXrecord
280
     1
102
RTVSPost2010Prop28
280
     0
102
RTVSPost2010PropOp28
 70
     1
102
RTVSPost2010Prop29
280
     1
102
RTVSPost2010PropOp29
 70
     1
102
RTVSPost2010Prop30
280
     1
102
RTVSPost2010PropOp30
 70
     1
102
RTVSPost2010Prop31
280
     0
102
RTVSPost2010PropOp31
 70
     1
102
RTVSPost2010Prop32
280
     0
102
RTVSPost2010PropOp32
 70
     1
102
RTVSPost2010Prop33
280
     0
102
RTVSPost2010PropOp33
 70
     1
102
RTVSPost2010Prop34
280
     0
102
RTVSPost2010PropOp34
 70
     1
102
RTVSPost2010Prop35
280
     0
102
RTVSPost2010PropOp35
 70
     1
102
RTVSPost2010Prop36
280
     0
102
RTVSPost2010PropOp36
 70
     1
102
RTVSPost2010Prop37
 90
       50
102
RTVSPost2010PropOp37
 70
     1
102
RTVSPost2010Prop38
140
0.0
102
RTVSPost2010PropOp38
 70
     1
102
RTVSPost2010Prop39
140
1.0
102
RTVSPost2010PropOp39
 70
     1
102
RTVSPost2010Prop40
 90
        0
102
RTVSPost2010PropOp40
 70
     1
102
RTVSPost2010Prop41ColorIndex
 90
       18
102
RTVSPost2010Prop41ColorRGB
 90
        0
102
RTVSPost2010PropOp41
 70
     1
102
RTVSPost2010Prop42
 90
       50
102
RTVSPost2010PropOp42
 70
     1
102
RTVSPost2010Prop43
 90
        3
102
RTVSPost2010PropOp43
 70
     1
102
RTVSPost2010Prop44ColorIndex
 90
        5
102
RTVSPost2010Prop44ColorRGB
 90
      255
102
RTVSPost2010PropOp44
 70
     1
102
RTVSPost2010Prop45
280
     0
102
RTVSPost2010PropOp45
 70
     1
102
RTVSPost2010Prop46
 90
       50
102
RTVSPost2010PropOp46
 70
     1
102
RTVSPost2010Prop47
 90
       50
102
RTVSPost2010PropOp47
 70
     1
102
RTVSPost2010Prop48
 90
       50
102
RTVSPost2010PropOp48
 70
     1
102
RTVSPost2010Prop49
280
     0
102
RTVSPost2010PropOp49
 70
     1
102
RTVSPost2010Prop50
 90
       50
102
RTVSPost2010PropOp50
 70
     1
102
RTVSPost2010Prop51ColorIndex
 90
      256
102
RTVSPost2010Prop51ColorRGB
 90
-16777216
102
RTVSPost2010PropOp51
 70
     0
102
RTVSPost2010Prop52
140
1.0
102
RTVSPost2010PropOp52
 70
     0
102
RTVSPost2010Prop53
 90
        2
102
RTVSPost2010PropOp53
 70
     1
102
RTVSPost2010Prop54
  1
strokes_ogs.tif
102
RTVSPost2010PropOp54
 70
     1
102
RTVSPost2010Prop55
280
     0
102
RTVSPost2010PropOp55
 70
     1
102
RTVSPost2010Prop56
140
1.0
102
RTVSPost2010PropOp56
 70
     1
102
RTVSPost2010Prop57
140
1.0
102
RTVSPost2010PropOp57
 70
     1
102
RTVSPropertyOp0
 70
     1
102
RTVSPropertyOp1
 70
     1
102
RTVSPropertyOp2
 70
     1
102
RTVSPropertyOp3
 70
     1
102
RTVSPropertyOp4
 70
     1
102
RTVSPropertyOp5
 70
     1
102
RTVSPropertyOp6
 70
     1
102
RTVSPropertyOp7
 70
     1
102
RTVSPropertyOp8
 70
     1
102
RTVSPropertyOp9
 70
     1
102
RTVSPropertyOp10
 70
     1
102
RTVSPropertyOp11
 70
     1
102
RTVSPropertyOp12
 70
     1
102
RTVSPropertyOp13
 70
     1
102
RTVSPropertyOp14
 70
     1
102
RTVSPropertyOp15
 70
     1
102
RTVSPropertyOp16
 70
     1
102
RTVSPropertyOp17
 70
     1
102
RTVSPropertyOp18
 70
     1
102
RTVSPropertyOp19
 70
     1
102
RTVSPropertyOp20
 70
     1
102
RTVSPropertyOp21
 70
     1
102
RTVSPropertyOp22
 70
     1
102
RTVSPropertyOp23
 70
     1
102
RTVSPropertyOp24
 70
     1
102
RTVSPropertyOp25
 70
     1
102
RTVSPropertyOp26
 70
     1
102
RTVSPropertyOp27
 70
     1
102
RTVSPropertyOp28
 70
     1
102
RTVSPropertyOp29
 70
     1
102
RTVSPropertyOp30
 70
     1
102
RTVSPropertyOp31
 70
     1
102
RTVSPropertyOp32
 70
     1
102
RTVSPropertyOp33
 70
     1
102
RTVSPropertyOp34
 70
     1
102
RTVSPropertyOp35
 70
     1
102
RTVSPropertyOp36
 70
     1
102
RTVSPropertyOp37
 70
     1
102
RTVSPropertyOp38
 70
     1
102
RTVSPropertyOp39
 70
     1
102
RTVSPropertyOp40
 70
     1
102
RTVSPropertyOp41
 70
     1
102
RTVSPropertyOp42
 70
     1
102
RTVSPropertyOp43
 70
     1
102
RTVSPropertyOp44
 70
     1
102
RTVSPropertyOp45
 70
     1
102
RTVSPropertyOp46
 70
     1
102
RTVSPropertyOp47
 70
     1
102
RTVSPropertyOp48
 70
     1
102
RTVSPropertyOp49
 70
     1
102
RTVSPropertyOp50
 70
     1
102
RTVSPropertyOp51
 70
     0
102
RTVSPropertyOp52
 70
     0
102
RTVSPropertyOp53
 70
     1
102
RTVSPropertyOp54
 70
     1
102
RTVSPropertyOp55
 70
     1
102
RTVSPropertyOp56
 70
     1
102
RTVSPropertyOp57
 70
     1
102
RTVSPropertyOp58
 70
     1
102
RTVSPropertyOp59
 70
     1
102
RTVSPropertyOp60
 70
     1
102
RTVSPropertyOp61
 70
     1
102
RTVSPropertyOp62
 70
     1
  0
XRECORD
  5
209A
102
{ACAD_REACTORS
330
2099
102
}
330
2099
100
AcDbXrecord
280
     1
102
RTVSPost2010Prop28
280
     0
102
RTVSPost2010PropOp28
 70
     1
102
RTVSPost2010Prop29
280
     1
102
RTVSPost2010PropOp29
 70
     1
102
RTVSPost2010Prop30
280
     1
102
RTVSPost2010PropOp30
 70
     1
102
RTVSPost2010Prop31
280
     0
102
RTVSPost2010PropOp31
 70
     1
102
RTVSPost2010Prop32
280
     0
102
RTVSPost2010PropOp32
 70
     1
102
RTVSPost2010Prop33
280
     0
102
RTVSPost2010PropOp33
 70
     1
102
RTVSPost2010Prop34
280
     0
102
RTVSPost2010PropOp34
 70
     1
102
RTVSPost2010Prop35
280
     0
102
RTVSPost2010PropOp35
 70
     1
102
RTVSPost2010Prop36
280
     0
102
RTVSPost2010PropOp36
 70
     1
102
RTVSPost2010Prop37
 90
       50
102
RTVSPost2010PropOp37
 70
     1
102
RTVSPost2010Prop38
140
0.0
102
RTVSPost2010PropOp38
 70
     1
102
RTVSPost2010Prop39
140
1.0
102
RTVSPost2010PropOp39
 70
     1
102
RTVSPost2010Prop40
 90
        0
102
RTVSPost2010PropOp40
 70
     1
102
RTVSPost2010Prop41ColorIndex
 90
       18
102
RTVSPost2010Prop41ColorRGB
 90
        0
102
RTVSPost2010PropOp41
 70
     1
102
RTVSPost2010Prop42
 90
       50
102
RTVSPost2010PropOp42
 70
     1
102
RTVSPost2010Prop43
 90
        3
102
RTVSPost2010PropOp43
 70
     1
102
RTVSPost2010Prop44ColorIndex
 90
        5
102
RTVSPost2010Prop44ColorRGB
 90
      255
102
RTVSPost2010PropOp44
 70
     1
102
RTVSPost2010Prop45
280
     0
102
RTVSPost2010PropOp45
 70
     1
102
RTVSPost2010Prop46
 90
       50
102
RTVSPost2010PropOp46
 70
     1
102
RTVSPost2010Prop47
 90
       50
102
RTVSPost2010PropOp47
 70
     1
102
RTVSPost2010Prop48
 90
       50
102
RTVSPost2010PropOp48
 70
     1
102
RTVSPost2010Prop49
280
     0
102
RTVSPost2010PropOp49
 70
     1
102
RTVSPost2010Prop50
 90
       50
102
RTVSPost2010PropOp50
 70
     1
102
RTVSPost2010Prop51ColorIndex
 90
      256
102
RTVSPost2010Prop51ColorRGB
 90
-16777216
102
RTVSPost2010PropOp51
 70
     0
102
RTVSPost2010Prop52
140
1.0
102
RTVSPost2010PropOp52
 70
     0
102
RTVSPost2010Prop53
 90
        2
102
RTVSPost2010PropOp53
 70
     1
102
RTVSPost2010Prop54
  1
strokes_ogs.tif
102
RTVSPost2010PropOp54
 70
     1
102
RTVSPost2010Prop55
280
     0
102
RTVSPost2010PropOp55
 70
     1
102
RTVSPost2010Prop56
140
1.0
102
RTVSPost2010PropOp56
 70
     1
102
RTVSPost2010Prop57
140
1.0
102
RTVSPost2010PropOp57
 70
     1
102
RTVSPropertyOp0
 70
     1
102
RTVSPropertyOp1
 70
     1
102
RTVSPropertyOp2
 70
     1
102
RTVSPropertyOp3
 70
     1
102
RTVSPropertyOp4
 70
     1
102
RTVSPropertyOp5
 70
     1
102
RTVSPropertyOp6
 70
     1
102
RTVSPropertyOp7
 70
     1
102
RTVSPropertyOp8
 70
     1
102
RTVSPropertyOp9
 70
     1
102
RTVSPropertyOp10
 70
     1
102
RTVSPropertyOp11
 70
     1
102
RTVSPropertyOp12
 70
     1
102
RTVSPropertyOp13
 70
     1
102
RTVSPropertyOp14
 70
     1
102
RTVSPropertyOp15
 70
     1
102
RTVSPropertyOp16
 70
     1
102
RTVSPropertyOp17
 70
     1
102
RTVSPropertyOp18
 70
     1
102
RTVSPropertyOp19
 70
     1
102
RTVSPropertyOp20
 70
     1
102
RTVSPropertyOp21
 70
     1
102
RTVSPropertyOp22
 70
     1
102
RTVSPropertyOp23
 70
     1
102
RTVSPropertyOp24
 70
     1
102
RTVSPropertyOp25
 70
     1
102
RTVSPropertyOp26
 70
     1
102
RTVSPropertyOp27
 70
     1
102
RTVSPropertyOp28
 70
     1
102
RTVSPropertyOp29
 70
     1
102
RTVSPropertyOp30
 70
     1
102
RTVSPropertyOp31
 70
     1
102
RTVSPropertyOp32
 70
     1
102
RTVSPropertyOp33
 70
     1
102
RTVSPropertyOp34
 70
     1
102
RTVSPropertyOp35
 70
     1
102
RTVSPropertyOp36
 70
     1
102
RTVSPropertyOp37
 70
     1
102
RTVSPropertyOp38
 70
     1
102
RTVSPropertyOp39
 70
     1
102
RTVSPropertyOp40
 70
     1
102
RTVSPropertyOp41
 70
     1
102
RTVSPropertyOp42
 70
     1
102
RTVSPropertyOp43
 70
     1
102
RTVSPropertyOp44
 70
     1
102
RTVSPropertyOp45
 70
     1
102
RTVSPropertyOp46
 70
     1
102
RTVSPropertyOp47
 70
     1
102
RTVSPropertyOp48
 70
     1
102
RTVSPropertyOp49
 70
     1
102
RTVSPropertyOp50
 70
     1
102
RTVSPropertyOp51
 70
     0
102
RTVSPropertyOp52
 70
     0
102
RTVSPropertyOp53
 70
     1
102
RTVSPropertyOp54
 70
     1
102
RTVSPropertyOp55
 70
     1
102
RTVSPropertyOp56
 70
     1
102
RTVSPropertyOp57
 70
     1
102
RTVSPropertyOp58
 70
     1
102
RTVSPropertyOp59
 70
     1
102
RTVSPropertyOp60
 70
     1
102
RTVSPropertyOp61
 70
     1
102
RTVSPropertyOp62
 70
     1
  0
XRECORD
  5
20A2
102
{ACAD_REACTORS
330
20A1
102
}
330
20A1
100
AcDbXrecord
280
     1
102
RTVSPost2010Prop28
280
     0
102
RTVSPost2010PropOp28
 70
     1
102
RTVSPost2010Prop29
280
     1
102
RTVSPost2010PropOp29
 70
     1
102
RTVSPost2010Prop30
280
     1
102
RTVSPost2010PropOp30
 70
     1
102
RTVSPost2010Prop31
280
     0
102
RTVSPost2010PropOp31
 70
     1
102
RTVSPost2010Prop32
280
     0
102
RTVSPost2010PropOp32
 70
     1
102
RTVSPost2010Prop33
280
     0
102
RTVSPost2010PropOp33
 70
     1
102
RTVSPost2010Prop34
280
     0
102
RTVSPost2010PropOp34
 70
     1
102
RTVSPost2010Prop35
280
     0
102
RTVSPost2010PropOp35
 70
     1
102
RTVSPost2010Prop36
280
     0
102
RTVSPost2010PropOp36
 70
     1
102
RTVSPost2010Prop37
 90
       50
102
RTVSPost2010PropOp37
 70
     1
102
RTVSPost2010Prop38
140
0.0
102
RTVSPost2010PropOp38
 70
     1
102
RTVSPost2010Prop39
140
1.0
102
RTVSPost2010PropOp39
 70
     1
102
RTVSPost2010Prop40
 90
        0
102
RTVSPost2010PropOp40
 70
     1
102
RTVSPost2010Prop41ColorIndex
 90
       18
102
RTVSPost2010Prop41ColorRGB
 90
        0
102
RTVSPost2010PropOp41
 70
     1
102
RTVSPost2010Prop42
 90
       50
102
RTVSPost2010PropOp42
 70
     1
102
RTVSPost2010Prop43
 90
        3
102
RTVSPost2010PropOp43
 70
     1
102
RTVSPost2010Prop44ColorIndex
 90
        5
102
RTVSPost2010Prop44ColorRGB
 90
      255
102
RTVSPost2010PropOp44
 70
     1
102
RTVSPost2010Prop45
280
     0
102
RTVSPost2010PropOp45
 70
     1
102
RTVSPost2010Prop46
 90
       50
102
RTVSPost2010PropOp46
 70
     1
102
RTVSPost2010Prop47
 90
       50
102
RTVSPost2010PropOp47
 70
     1
102
RTVSPost2010Prop48
 90
       50
102
RTVSPost2010PropOp48
 70
     1
102
RTVSPost2010Prop49
280
     0
102
RTVSPost2010PropOp49
 70
     1
102
RTVSPost2010Prop50
 90
       50
102
RTVSPost2010PropOp50
 70
     1
102
RTVSPost2010Prop51ColorIndex
 90
      256
102
RTVSPost2010Prop51ColorRGB
 90
-16777216
102
RTVSPost2010PropOp51
 70
     0
102
RTVSPost2010Prop52
140
1.0
102
RTVSPost2010PropOp52
 70
     0
102
RTVSPost2010Prop53
 90
        2
102
RTVSPost2010PropOp53
 70
     1
102
RTVSPost2010Prop54
  1
strokes_ogs.tif
102
RTVSPost2010PropOp54
 70
     1
102
RTVSPost2010Prop55
280
     0
102
RTVSPost2010PropOp55
 70
     1
102
RTVSPost2010Prop56
140
1.0
102
RTVSPost2010PropOp56
 70
     1
102
RTVSPost2010Prop57
140
1.0
102
RTVSPost2010PropOp57
 70
     1
102
RTVSPropertyOp0
 70
     1
102
RTVSPropertyOp1
 70
     1
102
RTVSPropertyOp2
 70
     1
102
RTVSPropertyOp3
 70
     1
102
RTVSPropertyOp4
 70
     1
102
RTVSPropertyOp5
 70
     1
102
RTVSPropertyOp6
 70
     1
102
RTVSPropertyOp7
 70
     1
102
RTVSPropertyOp8
 70
     1
102
RTVSPropertyOp9
 70
     1
102
RTVSPropertyOp10
 70
     1
102
RTVSPropertyOp11
 70
     1
102
RTVSPropertyOp12
 70
     1
102
RTVSPropertyOp13
 70
     1
102
RTVSPropertyOp14
 70
     1
102
RTVSPropertyOp15
 70
     1
102
RTVSPropertyOp16
 70
     1
102
RTVSPropertyOp17
 70
     1
102
RTVSPropertyOp18
 70
     1
102
RTVSPropertyOp19
 70
     1
102
RTVSPropertyOp20
 70
     1
102
RTVSPropertyOp21
 70
     1
102
RTVSPropertyOp22
 70
     1
102
RTVSPropertyOp23
 70
     1
102
RTVSPropertyOp24
 70
     1
102
RTVSPropertyOp25
 70
     1
102
RTVSPropertyOp26
 70
     1
102
RTVSPropertyOp27
 70
     1
102
RTVSPropertyOp28
 70
     1
102
RTVSPropertyOp29
 70
     1
102
RTVSPropertyOp30
 70
     1
102
RTVSPropertyOp31
 70
     1
102
RTVSPropertyOp32
 70
     1
102
RTVSPropertyOp33
 70
     1
102
RTVSPropertyOp34
 70
     1
102
RTVSPropertyOp35
 70
     1
102
RTVSPropertyOp36
 70
     1
102
RTVSPropertyOp37
 70
     1
102
RTVSPropertyOp38
 70
     1
102
RTVSPropertyOp39
 70
     1
102
RTVSPropertyOp40
 70
     1
102
RTVSPropertyOp41
 70
     1
102
RTVSPropertyOp42
 70
     1
102
RTVSPropertyOp43
 70
     1
102
RTVSPropertyOp44
 70
     1
102
RTVSPropertyOp45
 70
     1
102
RTVSPropertyOp46
 70
     1
102
RTVSPropertyOp47
 70
     1
102
RTVSPropertyOp48
 70
     1
102
RTVSPropertyOp49
 70
     1
102
RTVSPropertyOp50
 70
     1
102
RTVSPropertyOp51
 70
     0
102
RTVSPropertyOp52
 70
     0
102
RTVSPropertyOp53
 70
     1
102
RTVSPropertyOp54
 70
     1
102
RTVSPropertyOp55
 70
     1
102
RTVSPropertyOp56
 70
     1
102
RTVSPropertyOp57
 70
     1
102
RTVSPropertyOp58
 70
     1
102
RTVSPropertyOp59
 70
     1
102
RTVSPropertyOp60
 70
     1
102
RTVSPropertyOp61
 70
     1
102
RTVSPropertyOp62
 70
     1
  0
XRECORD
  5
2094
102
{ACAD_REACTORS
330
2093
102
}
330
2093
100
AcDbXrecord
280
     1
102
RTVSPost2010Prop28
280
     0
102
RTVSPost2010PropOp28
 70
     1
102
RTVSPost2010Prop29
280
     1
102
RTVSPost2010PropOp29
 70
     1
102
RTVSPost2010Prop30
280
     1
102
RTVSPost2010PropOp30
 70
     1
102
RTVSPost2010Prop31
280
     0
102
RTVSPost2010PropOp31
 70
     1
102
RTVSPost2010Prop32
280
     0
102
RTVSPost2010PropOp32
 70
     1
102
RTVSPost2010Prop33
280
     0
102
RTVSPost2010PropOp33
 70
     1
102
RTVSPost2010Prop34
280
     0
102
RTVSPost2010PropOp34
 70
     1
102
RTVSPost2010Prop35
280
     0
102
RTVSPost2010PropOp35
 70
     1
102
RTVSPost2010Prop36
280
     0
102
RTVSPost2010PropOp36
 70
     1
102
RTVSPost2010Prop37
 90
       50
102
RTVSPost2010PropOp37
 70
     1
102
RTVSPost2010Prop38
140
0.0
102
RTVSPost2010PropOp38
 70
     1
102
RTVSPost2010Prop39
140
1.0
102
RTVSPost2010PropOp39
 70
     1
102
RTVSPost2010Prop40
 90
        0
102
RTVSPost2010PropOp40
 70
     1
102
RTVSPost2010Prop41ColorIndex
 90
       18
102
RTVSPost2010Prop41ColorRGB
 90
        0
102
RTVSPost2010PropOp41
 70
     1
102
RTVSPost2010Prop42
 90
       50
102
RTVSPost2010PropOp42
 70
     1
102
RTVSPost2010Prop43
 90
        3
102
RTVSPost2010PropOp43
 70
     1
102
RTVSPost2010Prop44ColorIndex
 90
        5
102
RTVSPost2010Prop44ColorRGB
 90
      255
102
RTVSPost2010PropOp44
 70
     1
102
RTVSPost2010Prop45
280
     0
102
RTVSPost2010PropOp45
 70
     1
102
RTVSPost2010Prop46
 90
       50
102
RTVSPost2010PropOp46
 70
     1
102
RTVSPost2010Prop47
 90
       50
102
RTVSPost2010PropOp47
 70
     1
102
RTVSPost2010Prop48
 90
       50
102
RTVSPost2010PropOp48
 70
     1
102
RTVSPost2010Prop49
280
     0
102
RTVSPost2010PropOp49
 70
     1
102
RTVSPost2010Prop50
 90
       50
102
RTVSPost2010PropOp50
 70
     1
102
RTVSPost2010Prop51ColorIndex
 90
      256
102
RTVSPost2010Prop51ColorRGB
 90
-16777216
102
RTVSPost2010PropOp51
 70
     0
102
RTVSPost2010Prop52
140
1.0
102
RTVSPost2010PropOp52
 70
     0
102
RTVSPost2010Prop53
 90
        2
102
RTVSPost2010PropOp53
 70
     1
102
RTVSPost2010Prop54
  1
strokes_ogs.tif
102
RTVSPost2010PropOp54
 70
     1
102
RTVSPost2010Prop55
280
     0
102
RTVSPost2010PropOp55
 70
     1
102
RTVSPost2010Prop56
140
1.0
102
RTVSPost2010PropOp56
 70
     1
102
RTVSPost2010Prop57
140
1.0
102
RTVSPost2010PropOp57
 70
     1
102
RTVSPropertyOp0
 70
     1
102
RTVSPropertyOp1
 70
     1
102
RTVSPropertyOp2
 70
     1
102
RTVSPropertyOp3
 70
     1
102
RTVSPropertyOp4
 70
     1
102
RTVSPropertyOp5
 70
     1
102
RTVSPropertyOp6
 70
     1
102
RTVSPropertyOp7
 70
     1
102
RTVSPropertyOp8
 70
     1
102
RTVSPropertyOp9
 70
     1
102
RTVSPropertyOp10
 70
     1
102
RTVSPropertyOp11
 70
     1
102
RTVSPropertyOp12
 70
     1
102
RTVSPropertyOp13
 70
     1
102
RTVSPropertyOp14
 70
     1
102
RTVSPropertyOp15
 70
     1
102
RTVSPropertyOp16
 70
     1
102
RTVSPropertyOp17
 70
     1
102
RTVSPropertyOp18
 70
     1
102
RTVSPropertyOp19
 70
     1
102
RTVSPropertyOp20
 70
     1
102
RTVSPropertyOp21
 70
     1
102
RTVSPropertyOp22
 70
     1
102
RTVSPropertyOp23
 70
     1
102
RTVSPropertyOp24
 70
     1
102
RTVSPropertyOp25
 70
     1
102
RTVSPropertyOp26
 70
     1
102
RTVSPropertyOp27
 70
     1
102
RTVSPropertyOp28
 70
     1
102
RTVSPropertyOp29
 70
     1
102
RTVSPropertyOp30
 70
     1
102
RTVSPropertyOp31
 70
     1
102
RTVSPropertyOp32
 70
     1
102
RTVSPropertyOp33
 70
     1
102
RTVSPropertyOp34
 70
     1
102
RTVSPropertyOp35
 70
     1
102
RTVSPropertyOp36
 70
     1
102
RTVSPropertyOp37
 70
     1
102
RTVSPropertyOp38
 70
     1
102
RTVSPropertyOp39
 70
     1
102
RTVSPropertyOp40
 70
     1
102
RTVSPropertyOp41
 70
     1
102
RTVSPropertyOp42
 70
     1
102
RTVSPropertyOp43
 70
     1
102
RTVSPropertyOp44
 70
     1
102
RTVSPropertyOp45
 70
     1
102
RTVSPropertyOp46
 70
     1
102
RTVSPropertyOp47
 70
     1
102
RTVSPropertyOp48
 70
     1
102
RTVSPropertyOp49
 70
     1
102
RTVSPropertyOp50
 70
     1
102
RTVSPropertyOp51
 70
     0
102
RTVSPropertyOp52
 70
     0
102
RTVSPropertyOp53
 70
     1
102
RTVSPropertyOp54
 70
     1
102
RTVSPropertyOp55
 70
     1
102
RTVSPropertyOp56
 70
     1
102
RTVSPropertyOp57
 70
     1
102
RTVSPropertyOp58
 70
     1
102
RTVSPropertyOp59
 70
     1
102
RTVSPropertyOp60
 70
     1
102
RTVSPropertyOp61
 70
     1
102
RTVSPropertyOp62
 70
     1
  0
XRECORD
  5
2098
102
{ACAD_REACTORS
330
2097
102
}
330
2097
100
AcDbXrecord
280
     1
102
RTVSPost2010Prop28
280
     0
102
RTVSPost2010PropOp28
 70
     1
102
RTVSPost2010Prop29
280
     1
102
RTVSPost2010PropOp29
 70
     1
102
RTVSPost2010Prop30
280
     1
102
RTVSPost2010PropOp30
 70
     1
102
RTVSPost2010Prop31
280
     0
102
RTVSPost2010PropOp31
 70
     1
102
RTVSPost2010Prop32
280
     0
102
RTVSPost2010PropOp32
 70
     1
102
RTVSPost2010Prop33
280
     0
102
RTVSPost2010PropOp33
 70
     1
102
RTVSPost2010Prop34
280
     0
102
RTVSPost2010PropOp34
 70
     1
102
RTVSPost2010Prop35
280
     0
102
RTVSPost2010PropOp35
 70
     1
102
RTVSPost2010Prop36
280
     0
102
RTVSPost2010PropOp36
 70
     1
102
RTVSPost2010Prop37
 90
       50
102
RTVSPost2010PropOp37
 70
     1
102
RTVSPost2010Prop38
140
0.0
102
RTVSPost2010PropOp38
 70
     1
102
RTVSPost2010Prop39
140
1.0
102
RTVSPost2010PropOp39
 70
     1
102
RTVSPost2010Prop40
 90
        0
102
RTVSPost2010PropOp40
 70
     1
102
RTVSPost2010Prop41ColorIndex
 90
       18
102
RTVSPost2010Prop41ColorRGB
 90
        0
102
RTVSPost2010PropOp41
 70
     1
102
RTVSPost2010Prop42
 90
       50
102
RTVSPost2010PropOp42
 70
     1
102
RTVSPost2010Prop43
 90
        3
102
RTVSPost2010PropOp43
 70
     1
102
RTVSPost2010Prop44ColorIndex
 90
        5
102
RTVSPost2010Prop44ColorRGB
 90
      255
102
RTVSPost2010PropOp44
 70
     1
102
RTVSPost2010Prop45
280
     0
102
RTVSPost2010PropOp45
 70
     1
102
RTVSPost2010Prop46
 90
       50
102
RTVSPost2010PropOp46
 70
     1
102
RTVSPost2010Prop47
 90
       50
102
RTVSPost2010PropOp47
 70
     1
102
RTVSPost2010Prop48
 90
       50
102
RTVSPost2010PropOp48
 70
     1
102
RTVSPost2010Prop49
280
     0
102
RTVSPost2010PropOp49
 70
     1
102
RTVSPost2010Prop50
 90
       50
102
RTVSPost2010PropOp50
 70
     1
102
RTVSPost2010Prop51ColorIndex
 90
      256
102
RTVSPost2010Prop51ColorRGB
 90
-16777216
102
RTVSPost2010PropOp51
 70
     0
102
RTVSPost2010Prop52
140
1.0
102
RTVSPost2010PropOp52
 70
     0
102
RTVSPost2010Prop53
 90
        2
102
RTVSPost2010PropOp53
 70
     1
102
RTVSPost2010Prop54
  1
strokes_ogs.tif
102
RTVSPost2010PropOp54
 70
     1
102
RTVSPost2010Prop55
280
     0
102
RTVSPost2010PropOp55
 70
     1
102
RTVSPost2010Prop56
140
1.0
102
RTVSPost2010PropOp56
 70
     1
102
RTVSPost2010Prop57
140
1.0
102
RTVSPost2010PropOp57
 70
     1
102
RTVSPropertyOp0
 70
     1
102
RTVSPropertyOp1
 70
     1
102
RTVSPropertyOp2
 70
     1
102
RTVSPropertyOp3
 70
     1
102
RTVSPropertyOp4
 70
     1
102
RTVSPropertyOp5
 70
     1
102
RTVSPropertyOp6
 70
     1
102
RTVSPropertyOp7
 70
     1
102
RTVSPropertyOp8
 70
     1
102
RTVSPropertyOp9
 70
     1
102
RTVSPropertyOp10
 70
     1
102
RTVSPropertyOp11
 70
     1
102
RTVSPropertyOp12
 70
     1
102
RTVSPropertyOp13
 70
     1
102
RTVSPropertyOp14
 70
     1
102
RTVSPropertyOp15
 70
     1
102
RTVSPropertyOp16
 70
     1
102
RTVSPropertyOp17
 70
     1
102
RTVSPropertyOp18
 70
     1
102
RTVSPropertyOp19
 70
     1
102
RTVSPropertyOp20
 70
     1
102
RTVSPropertyOp21
 70
     1
102
RTVSPropertyOp22
 70
     1
102
RTVSPropertyOp23
 70
     1
102
RTVSPropertyOp24
 70
     1
102
RTVSPropertyOp25
 70
     1
102
RTVSPropertyOp26
 70
     1
102
RTVSPropertyOp27
 70
     1
102
RTVSPropertyOp28
 70
     1
102
RTVSPropertyOp29
 70
     1
102
RTVSPropertyOp30
 70
     1
102
RTVSPropertyOp31
 70
     1
102
RTVSPropertyOp32
 70
     1
102
RTVSPropertyOp33
 70
     1
102
RTVSPropertyOp34
 70
     1
102
RTVSPropertyOp35
 70
     1
102
RTVSPropertyOp36
 70
     1
102
RTVSPropertyOp37
 70
     1
102
RTVSPropertyOp38
 70
     1
102
RTVSPropertyOp39
 70
     1
102
RTVSPropertyOp40
 70
     1
102
RTVSPropertyOp41
 70
     1
102
RTVSPropertyOp42
 70
     1
102
RTVSPropertyOp43
 70
     1
102
RTVSPropertyOp44
 70
     1
102
RTVSPropertyOp45
 70
     1
102
RTVSPropertyOp46
 70
     1
102
RTVSPropertyOp47
 70
     1
102
RTVSPropertyOp48
 70
     1
102
RTVSPropertyOp49
 70
     1
102
RTVSPropertyOp50
 70
     1
102
RTVSPropertyOp51
 70
     0
102
RTVSPropertyOp52
 70
     0
102
RTVSPropertyOp53
 70
     1
102
RTVSPropertyOp54
 70
     1
102
RTVSPropertyOp55
 70
     1
102
RTVSPropertyOp56
 70
     1
102
RTVSPropertyOp57
 70
     1
102
RTVSPropertyOp58
 70
     1
102
RTVSPropertyOp59
 70
     1
102
RTVSPropertyOp60
 70
     1
102
RTVSPropertyOp61
 70
     1
102
RTVSPropertyOp62
 70
     1
  0
XRECORD
  5
20B2
102
{ACAD_REACTORS
330
20B1
102
}
330
20B1
100
AcDbXrecord
280
     1
102
RTVSPost2010Prop28
280
     0
102
RTVSPost2010PropOp28
 70
     0
102
RTVSPost2010Prop29
280
     1
102
RTVSPost2010PropOp29
 70
     0
102
RTVSPost2010Prop30
280
     1
102
RTVSPost2010PropOp30
 70
     0
102
RTVSPost2010Prop31
280
     0
102
RTVSPost2010PropOp31
 70
     0
102
RTVSPost2010Prop32
280
     0
102
RTVSPost2010PropOp32
 70
     0
102
RTVSPost2010Prop33
280
     0
102
RTVSPost2010PropOp33
 70
     0
102
RTVSPost2010Prop34
280
     0
102
RTVSPost2010PropOp34
 70
     0
102
RTVSPost2010Prop35
280
     0
102
RTVSPost2010PropOp35
 70
     0
102
RTVSPost2010Prop36
280
     0
102
RTVSPost2010PropOp36
 70
     0
102
RTVSPost2010Prop37
 90
       50
102
RTVSPost2010PropOp37
 70
     0
102
RTVSPost2010Prop38
140
0.0
102
RTVSPost2010PropOp38
 70
     0
102
RTVSPost2010Prop39
140
1.0
102
RTVSPost2010PropOp39
 70
     0
102
RTVSPost2010Prop40
 90
        0
102
RTVSPost2010PropOp40
 70
     0
102
RTVSPost2010Prop41ColorIndex
 90
       18
102
RTVSPost2010Prop41ColorRGB
 90
        0
102
RTVSPost2010PropOp41
 70
     0
102
RTVSPost2010Prop42
 90
       50
102
RTVSPost2010PropOp42
 70
     0
102
RTVSPost2010Prop43
 90
        3
102
RTVSPost2010PropOp43
 70
     0
102
RTVSPost2010Prop44ColorIndex
 90
        5
102
RTVSPost2010Prop44ColorRGB
 90
      255
102
RTVSPost2010PropOp44
 70
     0
102
RTVSPost2010Prop45
280
     0
102
RTVSPost2010PropOp45
 70
     0
102
RTVSPost2010Prop46
 90
       50
102
RTVSPost2010PropOp46
 70
     0
102
RTVSPost2010Prop47
 90
       50
102
RTVSPost2010PropOp47
 70
     0
102
RTVSPost2010Prop48
 90
       50
102
RTVSPost2010PropOp48
 70
     0
102
RTVSPost2010Prop49
280
     0
102
RTVSPost2010PropOp49
 70
     0
102
RTVSPost2010Prop50
 90
       50
102
RTVSPost2010PropOp50
 70
     0
102
RTVSPost2010Prop51ColorIndex
 90
      256
102
RTVSPost2010Prop51ColorRGB
 90
-16777216
102
RTVSPost2010PropOp51
 70
     0
102
RTVSPost2010Prop52
140
1.0
102
RTVSPost2010PropOp52
 70
     0
102
RTVSPost2010Prop53
 90
        2
102
RTVSPost2010PropOp53
 70
     0
102
RTVSPost2010Prop54
  1
strokes_ogs.tif
102
RTVSPost2010PropOp54
 70
     0
102
RTVSPost2010Prop55
280
     0
102
RTVSPost2010PropOp55
 70
     0
102
RTVSPost2010Prop56
140
1.0
102
RTVSPost2010PropOp56
 70
     0
102
RTVSPost2010Prop57
140
1.0
102
RTVSPost2010PropOp57
 70
     0
102
RTVSPropertyOp0
 70
     0
102
RTVSPropertyOp1
 70
     0
102
RTVSPropertyOp2
 70
     0
102
RTVSPropertyOp3
 70
     0
102
RTVSPropertyOp4
 70
     0
102
RTVSPropertyOp5
 70
     0
102
RTVSPropertyOp6
 70
     0
102
RTVSPropertyOp7
 70
     0
102
RTVSPropertyOp8
 70
     0
102
RTVSPropertyOp9
 70
     0
102
RTVSPropertyOp10
 70
     0
102
RTVSPropertyOp11
 70
     0
102
RTVSPropertyOp12
 70
     0
102
RTVSPropertyOp13
 70
     0
102
RTVSPropertyOp14
 70
     2
102
RTVSPropertyOp15
 70
     0
102
RTVSPropertyOp16
 70
     0
102
RTVSPropertyOp17
 70
     0
102
RTVSPropertyOp18
 70
     0
102
RTVSPropertyOp19
 70
     0
102
RTVSPropertyOp20
 70
     0
102
RTVSPropertyOp21
 70
     0
102
RTVSPropertyOp22
 70
     0
102
RTVSPropertyOp23
 70
     0
102
RTVSPropertyOp24
 70
     0
102
RTVSPropertyOp25
 70
     0
102
RTVSPropertyOp26
 70
     0
102
RTVSPropertyOp27
 70
     0
102
RTVSPropertyOp28
 70
     0
102
RTVSPropertyOp29
 70
     0
102
RTVSPropertyOp30
 70
     0
102
RTVSPropertyOp31
 70
     0
102
RTVSPropertyOp32
 70
     0
102
RTVSPropertyOp33
 70
     0
102
RTVSPropertyOp34
 70
     0
102
RTVSPropertyOp35
 70
     0
102
RTVSPropertyOp36
 70
     0
102
RTVSPropertyOp37
 70
     0
102
RTVSPropertyOp38
 70
     0
102
RTVSPropertyOp39
 70
     0
102
RTVSPropertyOp40
 70
     0
102
RTVSPropertyOp41
 70
     0
102
RTVSPropertyOp42
 70
     0
102
RTVSPropertyOp43
 70
     0
102
RTVSPropertyOp44
 70
     0
102
RTVSPropertyOp45
 70
     0
102
RTVSPropertyOp46
 70
     0
102
RTVSPropertyOp47
 70
     0
102
RTVSPropertyOp48
 70
     0
102
RTVSPropertyOp49
 70
     0
102
RTVSPropertyOp50
 70
     0
102
RTVSPropertyOp51
 70
     0
102
RTVSPropertyOp52
 70
     0
102
RTVSPropertyOp53
 70
     0
102
RTVSPropertyOp54
 70
     0
102
RTVSPropertyOp55
 70
     0
102
RTVSPropertyOp56
 70
     0
102
RTVSPropertyOp57
 70
     0
102
RTVSPropertyOp58
 70
     0
102
RTVSPropertyOp59
 70
     0
102
RTVSPropertyOp60
 70
     0
102
RTVSPropertyOp61
 70
     0
102
RTVSPropertyOp62
 70
     0
  0
XRECORD
  5
20A0
102
{ACAD_REACTORS
330
209F
102
}
330
209F
100
AcDbXrecord
280
     1
102
RTVSPost2010Prop28
280
     0
102
RTVSPost2010PropOp28
 70
     1
102
RTVSPost2010Prop29
280
     1
102
RTVSPost2010PropOp29
 70
     1
102
RTVSPost2010Prop30
280
     1
102
RTVSPost2010PropOp30
 70
     1
102
RTVSPost2010Prop31
280
     0
102
RTVSPost2010PropOp31
 70
     1
102
RTVSPost2010Prop32
280
     0
102
RTVSPost2010PropOp32
 70
     1
102
RTVSPost2010Prop33
280
     0
102
RTVSPost2010PropOp33
 70
     1
102
RTVSPost2010Prop34
280
     0
102
RTVSPost2010PropOp34
 70
     1
102
RTVSPost2010Prop35
280
     0
102
RTVSPost2010PropOp35
 70
     1
102
RTVSPost2010Prop36
280
     0
102
RTVSPost2010PropOp36
 70
     1
102
RTVSPost2010Prop37
 90
       50
102
RTVSPost2010PropOp37
 70
     1
102
RTVSPost2010Prop38
140
0.0
102
RTVSPost2010PropOp38
 70
     1
102
RTVSPost2010Prop39
140
1.0
102
RTVSPost2010PropOp39
 70
     1
102
RTVSPost2010Prop40
 90
        0
102
RTVSPost2010PropOp40
 70
     1
102
RTVSPost2010Prop41ColorIndex
 90
       18
102
RTVSPost2010Prop41ColorRGB
 90
        0
102
RTVSPost2010PropOp41
 70
     1
102
RTVSPost2010Prop42
 90
       50
102
RTVSPost2010PropOp42
 70
     1
102
RTVSPost2010Prop43
 90
        3
102
RTVSPost2010PropOp43
 70
     1
102
RTVSPost2010Prop44ColorIndex
 90
        5
102
RTVSPost2010Prop44ColorRGB
 90
      255
102
RTVSPost2010PropOp44
 70
     1
102
RTVSPost2010Prop45
280
     0
102
RTVSPost2010PropOp45
 70
     1
102
RTVSPost2010Prop46
 90
       50
102
RTVSPost2010PropOp46
 70
     1
102
RTVSPost2010Prop47
 90
       50
102
RTVSPost2010PropOp47
 70
     1
102
RTVSPost2010Prop48
 90
       50
102
RTVSPost2010PropOp48
 70
     1
102
RTVSPost2010Prop49
280
     0
102
RTVSPost2010PropOp49
 70
     1
102
RTVSPost2010Prop50
 90
       50
102
RTVSPost2010PropOp50
 70
     1
102
RTVSPost2010Prop51ColorIndex
 90
      256
102
RTVSPost2010Prop51ColorRGB
 90
-16777216
102
RTVSPost2010PropOp51
 70
     0
102
RTVSPost2010Prop52
140
1.0
102
RTVSPost2010PropOp52
 70
     0
102
RTVSPost2010Prop53
 90
        2
102
RTVSPost2010PropOp53
 70
     1
102
RTVSPost2010Prop54
  1
strokes_ogs.tif
102
RTVSPost2010PropOp54
 70
     1
102
RTVSPost2010Prop55
280
     0
102
RTVSPost2010PropOp55
 70
     1
102
RTVSPost2010Prop56
140
1.0
102
RTVSPost2010PropOp56
 70
     1
102
RTVSPost2010Prop57
140
1.0
102
RTVSPost2010PropOp57
 70
     1
102
RTVSPropertyOp0
 70
     1
102
RTVSPropertyOp1
 70
     1
102
RTVSPropertyOp2
 70
     1
102
RTVSPropertyOp3
 70
     1
102
RTVSPropertyOp4
 70
     1
102
RTVSPropertyOp5
 70
     1
102
RTVSPropertyOp6
 70
     1
102
RTVSPropertyOp7
 70
     1
102
RTVSPropertyOp8
 70
     1
102
RTVSPropertyOp9
 70
     1
102
RTVSPropertyOp10
 70
     1
102
RTVSPropertyOp11
 70
     1
102
RTVSPropertyOp12
 70
     1
102
RTVSPropertyOp13
 70
     1
102
RTVSPropertyOp14
 70
     1
102
RTVSPropertyOp15
 70
     1
102
RTVSPropertyOp16
 70
     1
102
RTVSPropertyOp17
 70
     1
102
RTVSPropertyOp18
 70
     1
102
RTVSPropertyOp19
 70
     1
102
RTVSPropertyOp20
 70
     1
102
RTVSPropertyOp21
 70
     1
102
RTVSPropertyOp22
 70
     1
102
RTVSPropertyOp23
 70
     1
102
RTVSPropertyOp24
 70
     1
102
RTVSPropertyOp25
 70
     1
102
RTVSPropertyOp26
 70
     1
102
RTVSPropertyOp27
 70
     1
102
RTVSPropertyOp28
 70
     1
102
RTVSPropertyOp29
 70
     1
102
RTVSPropertyOp30
 70
     1
102
RTVSPropertyOp31
 70
     1
102
RTVSPropertyOp32
 70
     1
102
RTVSPropertyOp33
 70
     1
102
RTVSPropertyOp34
 70
     1
102
RTVSPropertyOp35
 70
     1
102
RTVSPropertyOp36
 70
     1
102
RTVSPropertyOp37
 70
     1
102
RTVSPropertyOp38
 70
     1
102
RTVSPropertyOp39
 70
     1
102
RTVSPropertyOp40
 70
     1
102
RTVSPropertyOp41
 70
     1
102
RTVSPropertyOp42
 70
     1
102
RTVSPropertyOp43
 70
     1
102
RTVSPropertyOp44
 70
     1
102
RTVSPropertyOp45
 70
     1
102
RTVSPropertyOp46
 70
     1
102
RTVSPropertyOp47
 70
     1
102
RTVSPropertyOp48
 70
     1
102
RTVSPropertyOp49
 70
     1
102
RTVSPropertyOp50
 70
     1
102
RTVSPropertyOp51
 70
     0
102
RTVSPropertyOp52
 70
     0
102
RTVSPropertyOp53
 70
     1
102
RTVSPropertyOp54
 70
     1
102
RTVSPropertyOp55
 70
     1
102
RTVSPropertyOp56
 70
     1
102
RTVSPropertyOp57
 70
     1
102
RTVSPropertyOp58
 70
     1
102
RTVSPropertyOp59
 70
     1
102
RTVSPropertyOp60
 70
     1
102
RTVSPropertyOp61
 70
     1
102
RTVSPropertyOp62
 70
     1
  0
XRECORD
  5
2084
102
{ACAD_REACTORS
330
2083
102
}
330
2083
100
AcDbXrecord
280
     1
102
RTVSPost2010Prop28
280
     0
102
RTVSPost2010PropOp28
 70
     1
102
RTVSPost2010Prop29
280
     1
102
RTVSPost2010PropOp29
 70
     1
102
RTVSPost2010Prop30
280
     1
102
RTVSPost2010PropOp30
 70
     1
102
RTVSPost2010Prop31
280
     0
102
RTVSPost2010PropOp31
 70
     1
102
RTVSPost2010Prop32
280
     0
102
RTVSPost2010PropOp32
 70
     1
102
RTVSPost2010Prop33
280
     0
102
RTVSPost2010PropOp33
 70
     1
102
RTVSPost2010Prop34
280
     0
102
RTVSPost2010PropOp34
 70
     1
102
RTVSPost2010Prop35
280
     0
102
RTVSPost2010PropOp35
 70
     1
102
RTVSPost2010Prop36
280
     0
102
RTVSPost2010PropOp36
 70
     1
102
RTVSPost2010Prop37
 90
       50
102
RTVSPost2010PropOp37
 70
     1
102
RTVSPost2010Prop38
140
0.0
102
RTVSPost2010PropOp38
 70
     1
102
RTVSPost2010Prop39
140
1.0
102
RTVSPost2010PropOp39
 70
     1
102
RTVSPost2010Prop40
 90
        0
102
RTVSPost2010PropOp40
 70
     1
102
RTVSPost2010Prop41ColorIndex
 90
       18
102
RTVSPost2010Prop41ColorRGB
 90
        0
102
RTVSPost2010PropOp41
 70
     1
102
RTVSPost2010Prop42
 90
       50
102
RTVSPost2010PropOp42
 70
     1
102
RTVSPost2010Prop43
 90
        3
102
RTVSPost2010PropOp43
 70
     1
102
RTVSPost2010Prop44ColorIndex
 90
        5
102
RTVSPost2010Prop44ColorRGB
 90
      255
102
RTVSPost2010PropOp44
 70
     1
102
RTVSPost2010Prop45
280
     0
102
RTVSPost2010PropOp45
 70
     1
102
RTVSPost2010Prop46
 90
       50
102
RTVSPost2010PropOp46
 70
     1
102
RTVSPost2010Prop47
 90
       50
102
RTVSPost2010PropOp47
 70
     1
102
RTVSPost2010Prop48
 90
       50
102
RTVSPost2010PropOp48
 70
     1
102
RTVSPost2010Prop49
280
     0
102
RTVSPost2010PropOp49
 70
     1
102
RTVSPost2010Prop50
 90
       50
102
RTVSPost2010PropOp50
 70
     1
102
RTVSPost2010Prop51ColorIndex
 90
      256
102
RTVSPost2010Prop51ColorRGB
 90
-16777216
102
RTVSPost2010PropOp51
 70
     0
102
RTVSPost2010Prop52
140
1.0
102
RTVSPost2010PropOp52
 70
     0
102
RTVSPost2010Prop53
 90
        2
102
RTVSPost2010PropOp53
 70
     1
102
RTVSPost2010Prop54
  1
strokes_ogs.tif
102
RTVSPost2010PropOp54
 70
     1
102
RTVSPost2010Prop55
280
     0
102
RTVSPost2010PropOp55
 70
     1
102
RTVSPost2010Prop56
140
1.0
102
RTVSPost2010PropOp56
 70
     1
102
RTVSPost2010Prop57
140
1.0
102
RTVSPost2010PropOp57
 70
     1
102
RTVSPropertyOp0
 70
     1
102
RTVSPropertyOp1
 70
     1
102
RTVSPropertyOp2
 70
     1
102
RTVSPropertyOp3
 70
     1
102
RTVSPropertyOp4
 70
     1
102
RTVSPropertyOp5
 70
     1
102
RTVSPropertyOp6
 70
     1
102
RTVSPropertyOp7
 70
     1
102
RTVSPropertyOp8
 70
     1
102
RTVSPropertyOp9
 70
     1
102
RTVSPropertyOp10
 70
     1
102
RTVSPropertyOp11
 70
     1
102
RTVSPropertyOp12
 70
     1
102
RTVSPropertyOp13
 70
     1
102
RTVSPropertyOp14
 70
     1
102
RTVSPropertyOp15
 70
     1
102
RTVSPropertyOp16
 70
     1
102
RTVSPropertyOp17
 70
     1
102
RTVSPropertyOp18
 70
     1
102
RTVSPropertyOp19
 70
     1
102
RTVSPropertyOp20
 70
     1
102
RTVSPropertyOp21
 70
     1
102
RTVSPropertyOp22
 70
     1
102
RTVSPropertyOp23
 70
     1
102
RTVSPropertyOp24
 70
     1
102
RTVSPropertyOp25
 70
     1
102
RTVSPropertyOp26
 70
     1
102
RTVSPropertyOp27
 70
     1
102
RTVSPropertyOp28
 70
     1
102
RTVSPropertyOp29
 70
     1
102
RTVSPropertyOp30
 70
     1
102
RTVSPropertyOp31
 70
     1
102
RTVSPropertyOp32
 70
     1
102
RTVSPropertyOp33
 70
     1
102
RTVSPropertyOp34
 70
     1
102
RTVSPropertyOp35
 70
     1
102
RTVSPropertyOp36
 70
     1
102
RTVSPropertyOp37
 70
     1
102
RTVSPropertyOp38
 70
     1
102
RTVSPropertyOp39
 70
     1
102
RTVSPropertyOp40
 70
     1
102
RTVSPropertyOp41
 70
     1
102
RTVSPropertyOp42
 70
     1
102
RTVSPropertyOp43
 70
     1
102
RTVSPropertyOp44
 70
     1
102
RTVSPropertyOp45
 70
     1
102
RTVSPropertyOp46
 70
     1
102
RTVSPropertyOp47
 70
     1
102
RTVSPropertyOp48
 70
     1
102
RTVSPropertyOp49
 70
     1
102
RTVSPropertyOp50
 70
     1
102
RTVSPropertyOp51
 70
     0
102
RTVSPropertyOp52
 70
     0
102
RTVSPropertyOp53
 70
     1
102
RTVSPropertyOp54
 70
     1
102
RTVSPropertyOp55
 70
     1
102
RTVSPropertyOp56
 70
     1
102
RTVSPropertyOp57
 70
     1
102
RTVSPropertyOp58
 70
     1
102
RTVSPropertyOp59
 70
     1
102
RTVSPropertyOp60
 70
     1
102
RTVSPropertyOp61
 70
     1
102
RTVSPropertyOp62
 70
     1
  0
XRECORD
  5
2086
102
{ACAD_REACTORS
330
2085
102
}
330
2085
100
AcDbXrecord
280
     1
102
RTVSPost2010Prop28
280
     0
102
RTVSPost2010PropOp28
 70
     1
102
RTVSPost2010Prop29
280
     1
102
RTVSPost2010PropOp29
 70
     1
102
RTVSPost2010Prop30
280
     1
102
RTVSPost2010PropOp30
 70
     1
102
RTVSPost2010Prop31
280
     0
102
RTVSPost2010PropOp31
 70
     1
102
RTVSPost2010Prop32
280
     0
102
RTVSPost2010PropOp32
 70
     1
102
RTVSPost2010Prop33
280
     0
102
RTVSPost2010PropOp33
 70
     1
102
RTVSPost2010Prop34
280
     0
102
RTVSPost2010PropOp34
 70
     1
102
RTVSPost2010Prop35
280
     0
102
RTVSPost2010PropOp35
 70
     1
102
RTVSPost2010Prop36
280
     0
102
RTVSPost2010PropOp36
 70
     1
102
RTVSPost2010Prop37
 90
       50
102
RTVSPost2010PropOp37
 70
     1
102
RTVSPost2010Prop38
140
0.0
102
RTVSPost2010PropOp38
 70
     1
102
RTVSPost2010Prop39
140
1.0
102
RTVSPost2010PropOp39
 70
     1
102
RTVSPost2010Prop40
 90
        0
102
RTVSPost2010PropOp40
 70
     1
102
RTVSPost2010Prop41ColorIndex
 90
       18
102
RTVSPost2010Prop41ColorRGB
 90
        0
102
RTVSPost2010PropOp41
 70
     1
102
RTVSPost2010Prop42
 90
       50
102
RTVSPost2010PropOp42
 70
     1
102
RTVSPost2010Prop43
 90
        3
102
RTVSPost2010PropOp43
 70
     1
102
RTVSPost2010Prop44ColorIndex
 90
        5
102
RTVSPost2010Prop44ColorRGB
 90
      255
102
RTVSPost2010PropOp44
 70
     1
102
RTVSPost2010Prop45
280
     0
102
RTVSPost2010PropOp45
 70
     1
102
RTVSPost2010Prop46
 90
       50
102
RTVSPost2010PropOp46
 70
     1
102
RTVSPost2010Prop47
 90
       50
102
RTVSPost2010PropOp47
 70
     1
102
RTVSPost2010Prop48
 90
       50
102
RTVSPost2010PropOp48
 70
     1
102
RTVSPost2010Prop49
280
     0
102
RTVSPost2010PropOp49
 70
     1
102
RTVSPost2010Prop50
 90
       50
102
RTVSPost2010PropOp50
 70
     1
102
RTVSPost2010Prop51ColorIndex
 90
      256
102
RTVSPost2010Prop51ColorRGB
 90
-16777216
102
RTVSPost2010PropOp51
 70
     0
102
RTVSPost2010Prop52
140
1.0
102
RTVSPost2010PropOp52
 70
     0
102
RTVSPost2010Prop53
 90
        2
102
RTVSPost2010PropOp53
 70
     1
102
RTVSPost2010Prop54
  1
strokes_ogs.tif
102
RTVSPost2010PropOp54
 70
     1
102
RTVSPost2010Prop55
280
     0
102
RTVSPost2010PropOp55
 70
     1
102
RTVSPost2010Prop56
140
1.0
102
RTVSPost2010PropOp56
 70
     1
102
RTVSPost2010Prop57
140
1.0
102
RTVSPost2010PropOp57
 70
     1
102
RTVSPropertyOp0
 70
     1
102
RTVSPropertyOp1
 70
     1
102
RTVSPropertyOp2
 70
     1
102
RTVSPropertyOp3
 70
     1
102
RTVSPropertyOp4
 70
     1
102
RTVSPropertyOp5
 70
     1
102
RTVSPropertyOp6
 70
     1
102
RTVSPropertyOp7
 70
     1
102
RTVSPropertyOp8
 70
     1
102
RTVSPropertyOp9
 70
     1
102
RTVSPropertyOp10
 70
     1
102
RTVSPropertyOp11
 70
     1
102
RTVSPropertyOp12
 70
     1
102
RTVSPropertyOp13
 70
     1
102
RTVSPropertyOp14
 70
     1
102
RTVSPropertyOp15
 70
     1
102
RTVSPropertyOp16
 70
     1
102
RTVSPropertyOp17
 70
     1
102
RTVSPropertyOp18
 70
     1
102
RTVSPropertyOp19
 70
     1
102
RTVSPropertyOp20
 70
     1
102
RTVSPropertyOp21
 70
     1
102
RTVSPropertyOp22
 70
     1
102
RTVSPropertyOp23
 70
     1
102
RTVSPropertyOp24
 70
     1
102
RTVSPropertyOp25
 70
     1
102
RTVSPropertyOp26
 70
     1
102
RTVSPropertyOp27
 70
     1
102
RTVSPropertyOp28
 70
     1
102
RTVSPropertyOp29
 70
     1
102
RTVSPropertyOp30
 70
     1
102
RTVSPropertyOp31
 70
     1
102
RTVSPropertyOp32
 70
     1
102
RTVSPropertyOp33
 70
     1
102
RTVSPropertyOp34
 70
     1
102
RTVSPropertyOp35
 70
     1
102
RTVSPropertyOp36
 70
     1
102
RTVSPropertyOp37
 70
     1
102
RTVSPropertyOp38
 70
     1
102
RTVSPropertyOp39
 70
     1
102
RTVSPropertyOp40
 70
     1
102
RTVSPropertyOp41
 70
     1
102
RTVSPropertyOp42
 70
     1
102
RTVSPropertyOp43
 70
     1
102
RTVSPropertyOp44
 70
     1
102
RTVSPropertyOp45
 70
     1
102
RTVSPropertyOp46
 70
     1
102
RTVSPropertyOp47
 70
     1
102
RTVSPropertyOp48
 70
     1
102
RTVSPropertyOp49
 70
     1
102
RTVSPropertyOp50
 70
     1
102
RTVSPropertyOp51
 70
     0
102
RTVSPropertyOp52
 70
     0
102
RTVSPropertyOp53
 70
     1
102
RTVSPropertyOp54
 70
     1
102
RTVSPropertyOp55
 70
     1
102
RTVSPropertyOp56
 70
     1
102
RTVSPropertyOp57
 70
     1
102
RTVSPropertyOp58
 70
     1
102
RTVSPropertyOp59
 70
     1
102
RTVSPropertyOp60
 70
     1
102
RTVSPropertyOp61
 70
     1
102
RTVSPropertyOp62
 70
     1
  0
XRECORD
  5
2088
102
{ACAD_REACTORS
330
2087
102
}
330
2087
100
AcDbXrecord
280
     1
102
RTVSPost2010Prop28
280
     0
102
RTVSPost2010PropOp28
 70
     1
102
RTVSPost2010Prop29
280
     1
102
RTVSPost2010PropOp29
 70
     1
102
RTVSPost2010Prop30
280
     1
102
RTVSPost2010PropOp30
 70
     1
102
RTVSPost2010Prop31
280
     0
102
RTVSPost2010PropOp31
 70
     1
102
RTVSPost2010Prop32
280
     0
102
RTVSPost2010PropOp32
 70
     1
102
RTVSPost2010Prop33
280
     0
102
RTVSPost2010PropOp33
 70
     1
102
RTVSPost2010Prop34
280
     0
102
RTVSPost2010PropOp34
 70
     1
102
RTVSPost2010Prop35
280
     0
102
RTVSPost2010PropOp35
 70
     1
102
RTVSPost2010Prop36
280
     0
102
RTVSPost2010PropOp36
 70
     1
102
RTVSPost2010Prop37
 90
       50
102
RTVSPost2010PropOp37
 70
     1
102
RTVSPost2010Prop38
140
0.0
102
RTVSPost2010PropOp38
 70
     1
102
RTVSPost2010Prop39
140
1.0
102
RTVSPost2010PropOp39
 70
     1
102
RTVSPost2010Prop40
 90
        0
102
RTVSPost2010PropOp40
 70
     1
102
RTVSPost2010Prop41ColorIndex
 90
       18
102
RTVSPost2010Prop41ColorRGB
 90
        0
102
RTVSPost2010PropOp41
 70
     1
102
RTVSPost2010Prop42
 90
       50
102
RTVSPost2010PropOp42
 70
     1
102
RTVSPost2010Prop43
 90
        3
102
RTVSPost2010PropOp43
 70
     1
102
RTVSPost2010Prop44ColorIndex
 90
        5
102
RTVSPost2010Prop44ColorRGB
 90
      255
102
RTVSPost2010PropOp44
 70
     1
102
RTVSPost2010Prop45
280
     0
102
RTVSPost2010PropOp45
 70
     1
102
RTVSPost2010Prop46
 90
       50
102
RTVSPost2010PropOp46
 70
     1
102
RTVSPost2010Prop47
 90
       50
102
RTVSPost2010PropOp47
 70
     1
102
RTVSPost2010Prop48
 90
       50
102
RTVSPost2010PropOp48
 70
     1
102
RTVSPost2010Prop49
280
     0
102
RTVSPost2010PropOp49
 70
     1
102
RTVSPost2010Prop50
 90
       50
102
RTVSPost2010PropOp50
 70
     1
102
RTVSPost2010Prop51ColorIndex
 90
      256
102
RTVSPost2010Prop51ColorRGB
 90
-16777216
102
RTVSPost2010PropOp51
 70
     0
102
RTVSPost2010Prop52
140
1.0
102
RTVSPost2010PropOp52
 70
     0
102
RTVSPost2010Prop53
 90
        2
102
RTVSPost2010PropOp53
 70
     1
102
RTVSPost2010Prop54
  1
strokes_ogs.tif
102
RTVSPost2010PropOp54
 70
     1
102
RTVSPost2010Prop55
280
     0
102
RTVSPost2010PropOp55
 70
     1
102
RTVSPost2010Prop56
140
1.0
102
RTVSPost2010PropOp56
 70
     1
102
RTVSPost2010Prop57
140
1.0
102
RTVSPost2010PropOp57
 70
     1
102
RTVSPropertyOp0
 70
     1
102
RTVSPropertyOp1
 70
     1
102
RTVSPropertyOp2
 70
     1
102
RTVSPropertyOp3
 70
     1
102
RTVSPropertyOp4
 70
     1
102
RTVSPropertyOp5
 70
     1
102
RTVSPropertyOp6
 70
     1
102
RTVSPropertyOp7
 70
     1
102
RTVSPropertyOp8
 70
     1
102
RTVSPropertyOp9
 70
     1
102
RTVSPropertyOp10
 70
     1
102
RTVSPropertyOp11
 70
     1
102
RTVSPropertyOp12
 70
     1
102
RTVSPropertyOp13
 70
     1
102
RTVSPropertyOp14
 70
     1
102
RTVSPropertyOp15
 70
     1
102
RTVSPropertyOp16
 70
     1
102
RTVSPropertyOp17
 70
     1
102
RTVSPropertyOp18
 70
     1
102
RTVSPropertyOp19
 70
     1
102
RTVSPropertyOp20
 70
     1
102
RTVSPropertyOp21
 70
     1
102
RTVSPropertyOp22
 70
     1
102
RTVSPropertyOp23
 70
     1
102
RTVSPropertyOp24
 70
     1
102
RTVSPropertyOp25
 70
     1
102
RTVSPropertyOp26
 70
     1
102
RTVSPropertyOp27
 70
     1
102
RTVSPropertyOp28
 70
     1
102
RTVSPropertyOp29
 70
     1
102
RTVSPropertyOp30
 70
     1
102
RTVSPropertyOp31
 70
     1
102
RTVSPropertyOp32
 70
     1
102
RTVSPropertyOp33
 70
     1
102
RTVSPropertyOp34
 70
     1
102
RTVSPropertyOp35
 70
     1
102
RTVSPropertyOp36
 70
     1
102
RTVSPropertyOp37
 70
     1
102
RTVSPropertyOp38
 70
     1
102
RTVSPropertyOp39
 70
     1
102
RTVSPropertyOp40
 70
     1
102
RTVSPropertyOp41
 70
     1
102
RTVSPropertyOp42
 70
     1
102
RTVSPropertyOp43
 70
     1
102
RTVSPropertyOp44
 70
     1
102
RTVSPropertyOp45
 70
     1
102
RTVSPropertyOp46
 70
     1
102
RTVSPropertyOp47
 70
     1
102
RTVSPropertyOp48
 70
     1
102
RTVSPropertyOp49
 70
     1
102
RTVSPropertyOp50
 70
     1
102
RTVSPropertyOp51
 70
     0
102
RTVSPropertyOp52
 70
     0
102
RTVSPropertyOp53
 70
     1
102
RTVSPropertyOp54
 70
     1
102
RTVSPropertyOp55
 70
     1
102
RTVSPropertyOp56
 70
     1
102
RTVSPropertyOp57
 70
     1
102
RTVSPropertyOp58
 70
     1
102
RTVSPropertyOp59
 70
     1
102
RTVSPropertyOp60
 70
     1
102
RTVSPropertyOp61
 70
     1
102
RTVSPropertyOp62
 70
     1
  0
XRECORD
  5
208A
102
{ACAD_REACTORS
330
2089
102
}
330
2089
100
AcDbXrecord
280
     1
102
RTVSPost2010Prop28
280
     0
102
RTVSPost2010PropOp28
 70
     1
102
RTVSPost2010Prop29
280
     1
102
RTVSPost2010PropOp29
 70
     1
102
RTVSPost2010Prop30
280
     1
102
RTVSPost2010PropOp30
 70
     1
102
RTVSPost2010Prop31
280
     0
102
RTVSPost2010PropOp31
 70
     1
102
RTVSPost2010Prop32
280
     0
102
RTVSPost2010PropOp32
 70
     1
102
RTVSPost2010Prop33
280
     0
102
RTVSPost2010PropOp33
 70
     1
102
RTVSPost2010Prop34
280
     0
102
RTVSPost2010PropOp34
 70
     1
102
RTVSPost2010Prop35
280
     0
102
RTVSPost2010PropOp35
 70
     1
102
RTVSPost2010Prop36
280
     0
102
RTVSPost2010PropOp36
 70
     1
102
RTVSPost2010Prop37
 90
       50
102
RTVSPost2010PropOp37
 70
     1
102
RTVSPost2010Prop38
140
0.0
102
RTVSPost2010PropOp38
 70
     1
102
RTVSPost2010Prop39
140
1.0
102
RTVSPost2010PropOp39
 70
     1
102
RTVSPost2010Prop40
 90
        0
102
RTVSPost2010PropOp40
 70
     1
102
RTVSPost2010Prop41ColorIndex
 90
       18
102
RTVSPost2010Prop41ColorRGB
 90
        0
102
RTVSPost2010PropOp41
 70
     1
102
RTVSPost2010Prop42
 90
       50
102
RTVSPost2010PropOp42
 70
     1
102
RTVSPost2010Prop43
 90
        3
102
RTVSPost2010PropOp43
 70
     1
102
RTVSPost2010Prop44ColorIndex
 90
        5
102
RTVSPost2010Prop44ColorRGB
 90
      255
102
RTVSPost2010PropOp44
 70
     1
102
RTVSPost2010Prop45
280
     0
102
RTVSPost2010PropOp45
 70
     1
102
RTVSPost2010Prop46
 90
       50
102
RTVSPost2010PropOp46
 70
     1
102
RTVSPost2010Prop47
 90
       50
102
RTVSPost2010PropOp47
 70
     1
102
RTVSPost2010Prop48
 90
       50
102
RTVSPost2010PropOp48
 70
     1
102
RTVSPost2010Prop49
280
     0
102
RTVSPost2010PropOp49
 70
     1
102
RTVSPost2010Prop50
 90
       50
102
RTVSPost2010PropOp50
 70
     1
102
RTVSPost2010Prop51ColorIndex
 90
      256
102
RTVSPost2010Prop51ColorRGB
 90
-16777216
102
RTVSPost2010PropOp51
 70
     0
102
RTVSPost2010Prop52
140
1.0
102
RTVSPost2010PropOp52
 70
     0
102
RTVSPost2010Prop53
 90
        2
102
RTVSPost2010PropOp53
 70
     1
102
RTVSPost2010Prop54
  1
strokes_ogs.tif
102
RTVSPost2010PropOp54
 70
     1
102
RTVSPost2010Prop55
280
     0
102
RTVSPost2010PropOp55
 70
     1
102
RTVSPost2010Prop56
140
1.0
102
RTVSPost2010PropOp56
 70
     1
102
RTVSPost2010Prop57
140
1.0
102
RTVSPost2010PropOp57
 70
     1
102
RTVSPropertyOp0
 70
     1
102
RTVSPropertyOp1
 70
     1
102
RTVSPropertyOp2
 70
     1
102
RTVSPropertyOp3
 70
     1
102
RTVSPropertyOp4
 70
     1
102
RTVSPropertyOp5
 70
     1
102
RTVSPropertyOp6
 70
     1
102
RTVSPropertyOp7
 70
     1
102
RTVSPropertyOp8
 70
     1
102
RTVSPropertyOp9
 70
     1
102
RTVSPropertyOp10
 70
     1
102
RTVSPropertyOp11
 70
     1
102
RTVSPropertyOp12
 70
     1
102
RTVSPropertyOp13
 70
     1
102
RTVSPropertyOp14
 70
     1
102
RTVSPropertyOp15
 70
     1
102
RTVSPropertyOp16
 70
     1
102
RTVSPropertyOp17
 70
     1
102
RTVSPropertyOp18
 70
     1
102
RTVSPropertyOp19
 70
     1
102
RTVSPropertyOp20
 70
     1
102
RTVSPropertyOp21
 70
     1
102
RTVSPropertyOp22
 70
     1
102
RTVSPropertyOp23
 70
     1
102
RTVSPropertyOp24
 70
     1
102
RTVSPropertyOp25
 70
     1
102
RTVSPropertyOp26
 70
     1
102
RTVSPropertyOp27
 70
     1
102
RTVSPropertyOp28
 70
     1
102
RTVSPropertyOp29
 70
     1
102
RTVSPropertyOp30
 70
     1
102
RTVSPropertyOp31
 70
     1
102
RTVSPropertyOp32
 70
     1
102
RTVSPropertyOp33
 70
     1
102
RTVSPropertyOp34
 70
     1
102
RTVSPropertyOp35
 70
     1
102
RTVSPropertyOp36
 70
     1
102
RTVSPropertyOp37
 70
     1
102
RTVSPropertyOp38
 70
     1
102
RTVSPropertyOp39
 70
     1
102
RTVSPropertyOp40
 70
     1
102
RTVSPropertyOp41
 70
     1
102
RTVSPropertyOp42
 70
     1
102
RTVSPropertyOp43
 70
     1
102
RTVSPropertyOp44
 70
     1
102
RTVSPropertyOp45
 70
     1
102
RTVSPropertyOp46
 70
     1
102
RTVSPropertyOp47
 70
     1
102
RTVSPropertyOp48
 70
     1
102
RTVSPropertyOp49
 70
     1
102
RTVSPropertyOp50
 70
     1
102
RTVSPropertyOp51
 70
     0
102
RTVSPropertyOp52
 70
     0
102
RTVSPropertyOp53
 70
     1
102
RTVSPropertyOp54
 70
     1
102
RTVSPropertyOp55
 70
     1
102
RTVSPropertyOp56
 70
     1
102
RTVSPropertyOp57
 70
     1
102
RTVSPropertyOp58
 70
     1
102
RTVSPropertyOp59
 70
     1
102
RTVSPropertyOp60
 70
     1
102
RTVSPropertyOp61
 70
     1
102
RTVSPropertyOp62
 70
     1
  0
XRECORD
  5
2092
102
{ACAD_REACTORS
330
2091
102
}
330
2091
100
AcDbXrecord
280
     1
102
RTVSPost2010Prop28
280
     0
102
RTVSPost2010PropOp28
 70
     1
102
RTVSPost2010Prop29
280
     1
102
RTVSPost2010PropOp29
 70
     1
102
RTVSPost2010Prop30
280
     1
102
RTVSPost2010PropOp30
 70
     1
102
RTVSPost2010Prop31
280
     0
102
RTVSPost2010PropOp31
 70
     1
102
RTVSPost2010Prop32
280
     0
102
RTVSPost2010PropOp32
 70
     1
102
RTVSPost2010Prop33
280
     0
102
RTVSPost2010PropOp33
 70
     1
102
RTVSPost2010Prop34
280
     0
102
RTVSPost2010PropOp34
 70
     1
102
RTVSPost2010Prop35
280
     0
102
RTVSPost2010PropOp35
 70
     1
102
RTVSPost2010Prop36
280
     0
102
RTVSPost2010PropOp36
 70
     1
102
RTVSPost2010Prop37
 90
       50
102
RTVSPost2010PropOp37
 70
     1
102
RTVSPost2010Prop38
140
0.0
102
RTVSPost2010PropOp38
 70
     1
102
RTVSPost2010Prop39
140
1.0
102
RTVSPost2010PropOp39
 70
     1
102
RTVSPost2010Prop40
 90
        0
102
RTVSPost2010PropOp40
 70
     1
102
RTVSPost2010Prop41ColorIndex
 90
       18
102
RTVSPost2010Prop41ColorRGB
 90
        0
102
RTVSPost2010PropOp41
 70
     1
102
RTVSPost2010Prop42
 90
       50
102
RTVSPost2010PropOp42
 70
     1
102
RTVSPost2010Prop43
 90
        3
102
RTVSPost2010PropOp43
 70
     1
102
RTVSPost2010Prop44ColorIndex
 90
        5
102
RTVSPost2010Prop44ColorRGB
 90
      255
102
RTVSPost2010PropOp44
 70
     1
102
RTVSPost2010Prop45
280
     0
102
RTVSPost2010PropOp45
 70
     1
102
RTVSPost2010Prop46
 90
       50
102
RTVSPost2010PropOp46
 70
     1
102
RTVSPost2010Prop47
 90
       50
102
RTVSPost2010PropOp47
 70
     1
102
RTVSPost2010Prop48
 90
       50
102
RTVSPost2010PropOp48
 70
     1
102
RTVSPost2010Prop49
280
     0
102
RTVSPost2010PropOp49
 70
     1
102
RTVSPost2010Prop50
 90
       50
102
RTVSPost2010PropOp50
 70
     1
102
RTVSPost2010Prop51ColorIndex
 90
      256
102
RTVSPost2010Prop51ColorRGB
 90
-16777216
102
RTVSPost2010PropOp51
 70
     0
102
RTVSPost2010Prop52
140
1.0
102
RTVSPost2010PropOp52
 70
     0
102
RTVSPost2010Prop53
 90
        2
102
RTVSPost2010PropOp53
 70
     1
102
RTVSPost2010Prop54
  1
strokes_ogs.tif
102
RTVSPost2010PropOp54
 70
     1
102
RTVSPost2010Prop55
280
     0
102
RTVSPost2010PropOp55
 70
     1
102
RTVSPost2010Prop56
140
1.0
102
RTVSPost2010PropOp56
 70
     1
102
RTVSPost2010Prop57
140
1.0
102
RTVSPost2010PropOp57
 70
     1
102
RTVSPropertyOp0
 70
     1
102
RTVSPropertyOp1
 70
     1
102
RTVSPropertyOp2
 70
     1
102
RTVSPropertyOp3
 70
     1
102
RTVSPropertyOp4
 70
     1
102
RTVSPropertyOp5
 70
     1
102
RTVSPropertyOp6
 70
     1
102
RTVSPropertyOp7
 70
     1
102
RTVSPropertyOp8
 70
     1
102
RTVSPropertyOp9
 70
     1
102
RTVSPropertyOp10
 70
     1
102
RTVSPropertyOp11
 70
     1
102
RTVSPropertyOp12
 70
     1
102
RTVSPropertyOp13
 70
     1
102
RTVSPropertyOp14
 70
     1
102
RTVSPropertyOp15
 70
     1
102
RTVSPropertyOp16
 70
     1
102
RTVSPropertyOp17
 70
     1
102
RTVSPropertyOp18
 70
     1
102
RTVSPropertyOp19
 70
     1
102
RTVSPropertyOp20
 70
     1
102
RTVSPropertyOp21
 70
     1
102
RTVSPropertyOp22
 70
     1
102
RTVSPropertyOp23
 70
     1
102
RTVSPropertyOp24
 70
     1
102
RTVSPropertyOp25
 70
     1
102
RTVSPropertyOp26
 70
     1
102
RTVSPropertyOp27
 70
     1
102
RTVSPropertyOp28
 70
     1
102
RTVSPropertyOp29
 70
     1
102
RTVSPropertyOp30
 70
     1
102
RTVSPropertyOp31
 70
     1
102
RTVSPropertyOp32
 70
     1
102
RTVSPropertyOp33
 70
     1
102
RTVSPropertyOp34
 70
     1
102
RTVSPropertyOp35
 70
     1
102
RTVSPropertyOp36
 70
     1
102
RTVSPropertyOp37
 70
     1
102
RTVSPropertyOp38
 70
     1
102
RTVSPropertyOp39
 70
     1
102
RTVSPropertyOp40
 70
     1
102
RTVSPropertyOp41
 70
     1
102
RTVSPropertyOp42
 70
     1
102
RTVSPropertyOp43
 70
     1
102
RTVSPropertyOp44
 70
     1
102
RTVSPropertyOp45
 70
     1
102
RTVSPropertyOp46
 70
     1
102
RTVSPropertyOp47
 70
     1
102
RTVSPropertyOp48
 70
     1
102
RTVSPropertyOp49
 70
     1
102
RTVSPropertyOp50
 70
     1
102
RTVSPropertyOp51
 70
     0
102
RTVSPropertyOp52
 70
     0
102
RTVSPropertyOp53
 70
     1
102
RTVSPropertyOp54
 70
     1
102
RTVSPropertyOp55
 70
     1
102
RTVSPropertyOp56
 70
     1
102
RTVSPropertyOp57
 70
     1
102
RTVSPropertyOp58
 70
     1
102
RTVSPropertyOp59
 70
     1
102
RTVSPropertyOp60
 70
     1
102
RTVSPropertyOp61
 70
     1
102
RTVSPropertyOp62
 70
     1
  0
XRECORD
  5
20AE
102
{ACAD_REACTORS
330
20AD
102
}
330
20AD
100
AcDbXrecord
280
     1
102
RTVSPost2010Prop28
280
     0
102
RTVSPost2010PropOp28
 70
     0
102
RTVSPost2010Prop29
280
     1
102
RTVSPost2010PropOp29
 70
     0
102
RTVSPost2010Prop30
280
     1
102
RTVSPost2010PropOp30
 70
     0
102
RTVSPost2010Prop31
280
     0
102
RTVSPost2010PropOp31
 70
     0
102
RTVSPost2010Prop32
280
     0
102
RTVSPost2010PropOp32
 70
     0
102
RTVSPost2010Prop33
280
     0
102
RTVSPost2010PropOp33
 70
     0
102
RTVSPost2010Prop34
280
     0
102
RTVSPost2010PropOp34
 70
     0
102
RTVSPost2010Prop35
280
     0
102
RTVSPost2010PropOp35
 70
     0
102
RTVSPost2010Prop36
280
     0
102
RTVSPost2010PropOp36
 70
     0
102
RTVSPost2010Prop37
 90
       50
102
RTVSPost2010PropOp37
 70
     0
102
RTVSPost2010Prop38
140
0.0
102
RTVSPost2010PropOp38
 70
     0
102
RTVSPost2010Prop39
140
1.0
102
RTVSPost2010PropOp39
 70
     0
102
RTVSPost2010Prop40
 90
        0
102
RTVSPost2010PropOp40
 70
     0
102
RTVSPost2010Prop41ColorIndex
 90
       18
102
RTVSPost2010Prop41ColorRGB
 90
        0
102
RTVSPost2010PropOp41
 70
     0
102
RTVSPost2010Prop42
 90
       50
102
RTVSPost2010PropOp42
 70
     0
102
RTVSPost2010Prop43
 90
        3
102
RTVSPost2010PropOp43
 70
     0
102
RTVSPost2010Prop44ColorIndex
 90
        5
102
RTVSPost2010Prop44ColorRGB
 90
      255
102
RTVSPost2010PropOp44
 70
     0
102
RTVSPost2010Prop45
280
     0
102
RTVSPost2010PropOp45
 70
     0
102
RTVSPost2010Prop46
 90
       50
102
RTVSPost2010PropOp46
 70
     0
102
RTVSPost2010Prop47
 90
       50
102
RTVSPost2010PropOp47
 70
     0
102
RTVSPost2010Prop48
 90
       50
102
RTVSPost2010PropOp48
 70
     0
102
RTVSPost2010Prop49
280
     0
102
RTVSPost2010PropOp49
 70
     0
102
RTVSPost2010Prop50
 90
       50
102
RTVSPost2010PropOp50
 70
     0
102
RTVSPost2010Prop51ColorIndex
 90
      256
102
RTVSPost2010Prop51ColorRGB
 90
-16777216
102
RTVSPost2010PropOp51
 70
     0
102
RTVSPost2010Prop52
140
1.0
102
RTVSPost2010PropOp52
 70
     0
102
RTVSPost2010Prop53
 90
        2
102
RTVSPost2010PropOp53
 70
     0
102
RTVSPost2010Prop54
  1
strokes_ogs.tif
102
RTVSPost2010PropOp54
 70
     0
102
RTVSPost2010Prop55
280
     0
102
RTVSPost2010PropOp55
 70
     0
102
RTVSPost2010Prop56
140
1.0
102
RTVSPost2010PropOp56
 70
     0
102
RTVSPost2010Prop57
140
1.0
102
RTVSPost2010PropOp57
 70
     0
102
RTVSPropertyOp0
 70
     0
102
RTVSPropertyOp1
 70
     0
102
RTVSPropertyOp2
 70
     0
102
RTVSPropertyOp3
 70
     0
102
RTVSPropertyOp4
 70
     0
102
RTVSPropertyOp5
 70
     0
102
RTVSPropertyOp6
 70
     0
102
RTVSPropertyOp7
 70
     0
102
RTVSPropertyOp8
 70
     0
102
RTVSPropertyOp9
 70
     0
102
RTVSPropertyOp10
 70
     0
102
RTVSPropertyOp11
 70
     0
102
RTVSPropertyOp12
 70
     0
102
RTVSPropertyOp13
 70
     0
102
RTVSPropertyOp14
 70
     2
102
RTVSPropertyOp15
 70
     0
102
RTVSPropertyOp16
 70
     0
102
RTVSPropertyOp17
 70
     0
102
RTVSPropertyOp18
 70
     0
102
RTVSPropertyOp19
 70
     0
102
RTVSPropertyOp20
 70
     0
102
RTVSPropertyOp21
 70
     0
102
RTVSPropertyOp22
 70
     0
102
RTVSPropertyOp23
 70
     0
102
RTVSPropertyOp24
 70
     0
102
RTVSPropertyOp25
 70
     0
102
RTVSPropertyOp26
 70
     0
102
RTVSPropertyOp27
 70
     0
102
RTVSPropertyOp28
 70
     0
102
RTVSPropertyOp29
 70
     0
102
RTVSPropertyOp30
 70
     0
102
RTVSPropertyOp31
 70
     0
102
RTVSPropertyOp32
 70
     0
102
RTVSPropertyOp33
 70
     0
102
RTVSPropertyOp34
 70
     0
102
RTVSPropertyOp35
 70
     0
102
RTVSPropertyOp36
 70
     0
102
RTVSPropertyOp37
 70
     0
102
RTVSPropertyOp38
 70
     0
102
RTVSPropertyOp39
 70
     0
102
RTVSPropertyOp40
 70
     0
102
RTVSPropertyOp41
 70
     0
102
RTVSPropertyOp42
 70
     0
102
RTVSPropertyOp43
 70
     0
102
RTVSPropertyOp44
 70
     0
102
RTVSPropertyOp45
 70
     0
102
RTVSPropertyOp46
 70
     0
102
RTVSPropertyOp47
 70
     0
102
RTVSPropertyOp48
 70
     0
102
RTVSPropertyOp49
 70
     0
102
RTVSPropertyOp50
 70
     0
102
RTVSPropertyOp51
 70
     0
102
RTVSPropertyOp52
 70
     0
102
RTVSPropertyOp53
 70
     0
102
RTVSPropertyOp54
 70
     0
102
RTVSPropertyOp55
 70
     0
102
RTVSPropertyOp56
 70
     0
102
RTVSPropertyOp57
 70
     0
102
RTVSPropertyOp58
 70
     0
102
RTVSPropertyOp59
 70
     0
102
RTVSPropertyOp60
 70
     0
102
RTVSPropertyOp61
 70
     0
102
RTVSPropertyOp62
 70
     0
  0
XRECORD
  5
209E
102
{ACAD_REACTORS
330
209D
102
}
330
209D
100
AcDbXrecord
280
     1
102
RTVSPost2010Prop28
280
     0
102
RTVSPost2010PropOp28
 70
     1
102
RTVSPost2010Prop29
280
     1
102
RTVSPost2010PropOp29
 70
     1
102
RTVSPost2010Prop30
280
     1
102
RTVSPost2010PropOp30
 70
     1
102
RTVSPost2010Prop31
280
     0
102
RTVSPost2010PropOp31
 70
     1
102
RTVSPost2010Prop32
280
     0
102
RTVSPost2010PropOp32
 70
     1
102
RTVSPost2010Prop33
280
     0
102
RTVSPost2010PropOp33
 70
     1
102
RTVSPost2010Prop34
280
     0
102
RTVSPost2010PropOp34
 70
     1
102
RTVSPost2010Prop35
280
     0
102
RTVSPost2010PropOp35
 70
     1
102
RTVSPost2010Prop36
280
     0
102
RTVSPost2010PropOp36
 70
     1
102
RTVSPost2010Prop37
 90
       50
102
RTVSPost2010PropOp37
 70
     1
102
RTVSPost2010Prop38
140
0.0
102
RTVSPost2010PropOp38
 70
     1
102
RTVSPost2010Prop39
140
1.0
102
RTVSPost2010PropOp39
 70
     1
102
RTVSPost2010Prop40
 90
        0
102
RTVSPost2010PropOp40
 70
     1
102
RTVSPost2010Prop41ColorIndex
 90
       18
102
RTVSPost2010Prop41ColorRGB
 90
        0
102
RTVSPost2010PropOp41
 70
     1
102
RTVSPost2010Prop42
 90
       50
102
RTVSPost2010PropOp42
 70
     1
102
RTVSPost2010Prop43
 90
        3
102
RTVSPost2010PropOp43
 70
     1
102
RTVSPost2010Prop44ColorIndex
 90
        5
102
RTVSPost2010Prop44ColorRGB
 90
      255
102
RTVSPost2010PropOp44
 70
     1
102
RTVSPost2010Prop45
280
     0
102
RTVSPost2010PropOp45
 70
     1
102
RTVSPost2010Prop46
 90
       50
102
RTVSPost2010PropOp46
 70
     1
102
RTVSPost2010Prop47
 90
       50
102
RTVSPost2010PropOp47
 70
     1
102
RTVSPost2010Prop48
 90
       50
102
RTVSPost2010PropOp48
 70
     1
102
RTVSPost2010Prop49
280
     0
102
RTVSPost2010PropOp49
 70
     1
102
RTVSPost2010Prop50
 90
       50
102
RTVSPost2010PropOp50
 70
     1
102
RTVSPost2010Prop51ColorIndex
 90
      256
102
RTVSPost2010Prop51ColorRGB
 90
-16777216
102
RTVSPost2010PropOp51
 70
     0
102
RTVSPost2010Prop52
140
1.0
102
RTVSPost2010PropOp52
 70
     0
102
RTVSPost2010Prop53
 90
        2
102
RTVSPost2010PropOp53
 70
     1
102
RTVSPost2010Prop54
  1
strokes_ogs.tif
102
RTVSPost2010PropOp54
 70
     1
102
RTVSPost2010Prop55
280
     0
102
RTVSPost2010PropOp55
 70
     1
102
RTVSPost2010Prop56
140
1.0
102
RTVSPost2010PropOp56
 70
     1
102
RTVSPost2010Prop57
140
1.0
102
RTVSPost2010PropOp57
 70
     1
102
RTVSPropertyOp0
 70
     1
102
RTVSPropertyOp1
 70
     1
102
RTVSPropertyOp2
 70
     1
102
RTVSPropertyOp3
 70
     1
102
RTVSPropertyOp4
 70
     1
102
RTVSPropertyOp5
 70
     1
102
RTVSPropertyOp6
 70
     1
102
RTVSPropertyOp7
 70
     1
102
RTVSPropertyOp8
 70
     1
102
RTVSPropertyOp9
 70
     1
102
RTVSPropertyOp10
 70
     1
102
RTVSPropertyOp11
 70
     1
102
RTVSPropertyOp12
 70
     1
102
RTVSPropertyOp13
 70
     1
102
RTVSPropertyOp14
 70
     1
102
RTVSPropertyOp15
 70
     1
102
RTVSPropertyOp16
 70
     1
102
RTVSPropertyOp17
 70
     1
102
RTVSPropertyOp18
 70
     1
102
RTVSPropertyOp19
 70
     1
102
RTVSPropertyOp20
 70
     1
102
RTVSPropertyOp21
 70
     1
102
RTVSPropertyOp22
 70
     1
102
RTVSPropertyOp23
 70
     1
102
RTVSPropertyOp24
 70
     1
102
RTVSPropertyOp25
 70
     1
102
RTVSPropertyOp26
 70
     1
102
RTVSPropertyOp27
 70
     1
102
RTVSPropertyOp28
 70
     1
102
RTVSPropertyOp29
 70
     1
102
RTVSPropertyOp30
 70
     1
102
RTVSPropertyOp31
 70
     1
102
RTVSPropertyOp32
 70
     1
102
RTVSPropertyOp33
 70
     1
102
RTVSPropertyOp34
 70
     1
102
RTVSPropertyOp35
 70
     1
102
RTVSPropertyOp36
 70
     1
102
RTVSPropertyOp37
 70
     1
102
RTVSPropertyOp38
 70
     1
102
RTVSPropertyOp39
 70
     1
102
RTVSPropertyOp40
 70
     1
102
RTVSPropertyOp41
 70
     1
102
RTVSPropertyOp42
 70
     1
102
RTVSPropertyOp43
 70
     1
102
RTVSPropertyOp44
 70
     1
102
RTVSPropertyOp45
 70
     1
102
RTVSPropertyOp46
 70
     1
102
RTVSPropertyOp47
 70
     1
102
RTVSPropertyOp48
 70
     1
102
RTVSPropertyOp49
 70
     1
102
RTVSPropertyOp50
 70
     1
102
RTVSPropertyOp51
 70
     0
102
RTVSPropertyOp52
 70
     0
102
RTVSPropertyOp53
 70
     1
102
RTVSPropertyOp54
 70
     1
102
RTVSPropertyOp55
 70
     1
102
RTVSPropertyOp56
 70
     1
102
RTVSPropertyOp57
 70
     1
102
RTVSPropertyOp58
 70
     1
102
RTVSPropertyOp59
 70
     1
102
RTVSPropertyOp60
 70
     1
102
RTVSPropertyOp61
 70
     1
102
RTVSPropertyOp62
 70
     1
  0
XRECORD
  5
20B0
102
{ACAD_REACTORS
330
20AF
102
}
330
20AF
100
AcDbXrecord
280
     1
102
RTVSPost2010Prop28
280
     0
102
RTVSPost2010PropOp28
 70
     0
102
RTVSPost2010Prop29
280
     1
102
RTVSPost2010PropOp29
 70
     0
102
RTVSPost2010Prop30
280
     1
102
RTVSPost2010PropOp30
 70
     0
102
RTVSPost2010Prop31
280
     0
102
RTVSPost2010PropOp31
 70
     0
102
RTVSPost2010Prop32
280
     0
102
RTVSPost2010PropOp32
 70
     0
102
RTVSPost2010Prop33
280
     0
102
RTVSPost2010PropOp33
 70
     0
102
RTVSPost2010Prop34
280
     0
102
RTVSPost2010PropOp34
 70
     0
102
RTVSPost2010Prop35
280
     0
102
RTVSPost2010PropOp35
 70
     0
102
RTVSPost2010Prop36
280
     0
102
RTVSPost2010PropOp36
 70
     0
102
RTVSPost2010Prop37
 90
       50
102
RTVSPost2010PropOp37
 70
     0
102
RTVSPost2010Prop38
140
0.0
102
RTVSPost2010PropOp38
 70
     0
102
RTVSPost2010Prop39
140
1.0
102
RTVSPost2010PropOp39
 70
     0
102
RTVSPost2010Prop40
 90
        0
102
RTVSPost2010PropOp40
 70
     0
102
RTVSPost2010Prop41ColorIndex
 90
       18
102
RTVSPost2010Prop41ColorRGB
 90
        0
102
RTVSPost2010PropOp41
 70
     0
102
RTVSPost2010Prop42
 90
       50
102
RTVSPost2010PropOp42
 70
     0
102
RTVSPost2010Prop43
 90
        3
102
RTVSPost2010PropOp43
 70
     0
102
RTVSPost2010Prop44ColorIndex
 90
        5
102
RTVSPost2010Prop44ColorRGB
 90
      255
102
RTVSPost2010PropOp44
 70
     0
102
RTVSPost2010Prop45
280
     0
102
RTVSPost2010PropOp45
 70
     0
102
RTVSPost2010Prop46
 90
       50
102
RTVSPost2010PropOp46
 70
     0
102
RTVSPost2010Prop47
 90
       50
102
RTVSPost2010PropOp47
 70
     0
102
RTVSPost2010Prop48
 90
       50
102
RTVSPost2010PropOp48
 70
     0
102
RTVSPost2010Prop49
280
     0
102
RTVSPost2010PropOp49
 70
     0
102
RTVSPost2010Prop50
 90
       50
102
RTVSPost2010PropOp50
 70
     0
102
RTVSPost2010Prop51ColorIndex
 90
      256
102
RTVSPost2010Prop51ColorRGB
 90
-16777216
102
RTVSPost2010PropOp51
 70
     0
102
RTVSPost2010Prop52
140
1.0
102
RTVSPost2010PropOp52
 70
     0
102
RTVSPost2010Prop53
 90
        2
102
RTVSPost2010PropOp53
 70
     0
102
RTVSPost2010Prop54
  1
strokes_ogs.tif
102
RTVSPost2010PropOp54
 70
     0
102
RTVSPost2010Prop55
280
     0
102
RTVSPost2010PropOp55
 70
     0
102
RTVSPost2010Prop56
140
1.0
102
RTVSPost2010PropOp56
 70
     0
102
RTVSPost2010Prop57
140
1.0
102
RTVSPost2010PropOp57
 70
     0
102
RTVSPropertyOp0
 70
     0
102
RTVSPropertyOp1
 70
     0
102
RTVSPropertyOp2
 70
     0
102
RTVSPropertyOp3
 70
     0
102
RTVSPropertyOp4
 70
     0
102
RTVSPropertyOp5
 70
     0
102
RTVSPropertyOp6
 70
     0
102
RTVSPropertyOp7
 70
     0
102
RTVSPropertyOp8
 70
     0
102
RTVSPropertyOp9
 70
     0
102
RTVSPropertyOp10
 70
     0
102
RTVSPropertyOp11
 70
     0
102
RTVSPropertyOp12
 70
     0
102
RTVSPropertyOp13
 70
     0
102
RTVSPropertyOp14
 70
     2
102
RTVSPropertyOp15
 70
     0
102
RTVSPropertyOp16
 70
     0
102
RTVSPropertyOp17
 70
     0
102
RTVSPropertyOp18
 70
     0
102
RTVSPropertyOp19
 70
     0
102
RTVSPropertyOp20
 70
     0
102
RTVSPropertyOp21
 70
     0
102
RTVSPropertyOp22
 70
     0
102
RTVSPropertyOp23
 70
     0
102
RTVSPropertyOp24
 70
     0
102
RTVSPropertyOp25
 70
     0
102
RTVSPropertyOp26
 70
     0
102
RTVSPropertyOp27
 70
     0
102
RTVSPropertyOp28
 70
     0
102
RTVSPropertyOp29
 70
     0
102
RTVSPropertyOp30
 70
     0
102
RTVSPropertyOp31
 70
     0
102
RTVSPropertyOp32
 70
     0
102
RTVSPropertyOp33
 70
     0
102
RTVSPropertyOp34
 70
     0
102
RTVSPropertyOp35
 70
     0
102
RTVSPropertyOp36
 70
     0
102
RTVSPropertyOp37
 70
     0
102
RTVSPropertyOp38
 70
     0
102
RTVSPropertyOp39
 70
     0
102
RTVSPropertyOp40
 70
     0
102
RTVSPropertyOp41
 70
     0
102
RTVSPropertyOp42
 70
     0
102
RTVSPropertyOp43
 70
     0
102
RTVSPropertyOp44
 70
     0
102
RTVSPropertyOp45
 70
     0
102
RTVSPropertyOp46
 70
     0
102
RTVSPropertyOp47
 70
     0
102
RTVSPropertyOp48
 70
     0
102
RTVSPropertyOp49
 70
     0
102
RTVSPropertyOp50
 70
     0
102
RTVSPropertyOp51
 70
     0
102
RTVSPropertyOp52
 70
     0
102
RTVSPropertyOp53
 70
     0
102
RTVSPropertyOp54
 70
     0
102
RTVSPropertyOp55
 70
     0
102
RTVSPropertyOp56
 70
     0
102
RTVSPropertyOp57
 70
     0
102
RTVSPropertyOp58
 70
     0
102
RTVSPropertyOp59
 70
     0
102
RTVSPropertyOp60
 70
     0
102
RTVSPropertyOp61
 70
     0
102
RTVSPropertyOp62
 70
     0
  0
XRECORD
  5
2096
102
{ACAD_REACTORS
330
2095
102
}
330
2095
100
AcDbXrecord
280
     1
102
RTVSPost2010Prop28
280
     0
102
RTVSPost2010PropOp28
 70
     1
102
RTVSPost2010Prop29
280
     1
102
RTVSPost2010PropOp29
 70
     1
102
RTVSPost2010Prop30
280
     1
102
RTVSPost2010PropOp30
 70
     1
102
RTVSPost2010Prop31
280
     0
102
RTVSPost2010PropOp31
 70
     1
102
RTVSPost2010Prop32
280
     0
102
RTVSPost2010PropOp32
 70
     1
102
RTVSPost2010Prop33
280
     0
102
RTVSPost2010PropOp33
 70
     1
102
RTVSPost2010Prop34
280
     0
102
RTVSPost2010PropOp34
 70
     1
102
RTVSPost2010Prop35
280
     0
102
RTVSPost2010PropOp35
 70
     1
102
RTVSPost2010Prop36
280
     0
102
RTVSPost2010PropOp36
 70
     1
102
RTVSPost2010Prop37
 90
       50
102
RTVSPost2010PropOp37
 70
     1
102
RTVSPost2010Prop38
140
0.0
102
RTVSPost2010PropOp38
 70
     1
102
RTVSPost2010Prop39
140
1.0
102
RTVSPost2010PropOp39
 70
     1
102
RTVSPost2010Prop40
 90
        0
102
RTVSPost2010PropOp40
 70
     1
102
RTVSPost2010Prop41ColorIndex
 90
       18
102
RTVSPost2010Prop41ColorRGB
 90
        0
102
RTVSPost2010PropOp41
 70
     1
102
RTVSPost2010Prop42
 90
       50
102
RTVSPost2010PropOp42
 70
     1
102
RTVSPost2010Prop43
 90
        3
102
RTVSPost2010PropOp43
 70
     1
102
RTVSPost2010Prop44ColorIndex
 90
        5
102
RTVSPost2010Prop44ColorRGB
 90
      255
102
RTVSPost2010PropOp44
 70
     1
102
RTVSPost2010Prop45
280
     0
102
RTVSPost2010PropOp45
 70
     1
102
RTVSPost2010Prop46
 90
       50
102
RTVSPost2010PropOp46
 70
     1
102
RTVSPost2010Prop47
 90
       50
102
RTVSPost2010PropOp47
 70
     1
102
RTVSPost2010Prop48
 90
       50
102
RTVSPost2010PropOp48
 70
     1
102
RTVSPost2010Prop49
280
     0
102
RTVSPost2010PropOp49
 70
     1
102
RTVSPost2010Prop50
 90
       50
102
RTVSPost2010PropOp50
 70
     1
102
RTVSPost2010Prop51ColorIndex
 90
      256
102
RTVSPost2010Prop51ColorRGB
 90
-16777216
102
RTVSPost2010PropOp51
 70
     0
102
RTVSPost2010Prop52
140
1.0
102
RTVSPost2010PropOp52
 70
     0
102
RTVSPost2010Prop53
 90
        2
102
RTVSPost2010PropOp53
 70
     1
102
RTVSPost2010Prop54
  1
strokes_ogs.tif
102
RTVSPost2010PropOp54
 70
     1
102
RTVSPost2010Prop55
280
     0
102
RTVSPost2010PropOp55
 70
     1
102
RTVSPost2010Prop56
140
1.0
102
RTVSPost2010PropOp56
 70
     1
102
RTVSPost2010Prop57
140
1.0
102
RTVSPost2010PropOp57
 70
     1
102
RTVSPropertyOp0
 70
     1
102
RTVSPropertyOp1
 70
     1
102
RTVSPropertyOp2
 70
     1
102
RTVSPropertyOp3
 70
     1
102
RTVSPropertyOp4
 70
     1
102
RTVSPropertyOp5
 70
     1
102
RTVSPropertyOp6
 70
     1
102
RTVSPropertyOp7
 70
     1
102
RTVSPropertyOp8
 70
     1
102
RTVSPropertyOp9
 70
     1
102
RTVSPropertyOp10
 70
     1
102
RTVSPropertyOp11
 70
     1
102
RTVSPropertyOp12
 70
     1
102
RTVSPropertyOp13
 70
     1
102
RTVSPropertyOp14
 70
     1
102
RTVSPropertyOp15
 70
     1
102
RTVSPropertyOp16
 70
     1
102
RTVSPropertyOp17
 70
     1
102
RTVSPropertyOp18
 70
     1
102
RTVSPropertyOp19
 70
     1
102
RTVSPropertyOp20
 70
     1
102
RTVSPropertyOp21
 70
     1
102
RTVSPropertyOp22
 70
     1
102
RTVSPropertyOp23
 70
     1
102
RTVSPropertyOp24
 70
     1
102
RTVSPropertyOp25
 70
     1
102
RTVSPropertyOp26
 70
     1
102
RTVSPropertyOp27
 70
     1
102
RTVSPropertyOp28
 70
     1
102
RTVSPropertyOp29
 70
     1
102
RTVSPropertyOp30
 70
     1
102
RTVSPropertyOp31
 70
     1
102
RTVSPropertyOp32
 70
     1
102
RTVSPropertyOp33
 70
     1
102
RTVSPropertyOp34
 70
     1
102
RTVSPropertyOp35
 70
     1
102
RTVSPropertyOp36
 70
     1
102
RTVSPropertyOp37
 70
     1
102
RTVSPropertyOp38
 70
     1
102
RTVSPropertyOp39
 70
     1
102
RTVSPropertyOp40
 70
     1
102
RTVSPropertyOp41
 70
     1
102
RTVSPropertyOp42
 70
     1
102
RTVSPropertyOp43
 70
     1
102
RTVSPropertyOp44
 70
     1
102
RTVSPropertyOp45
 70
     1
102
RTVSPropertyOp46
 70
     1
102
RTVSPropertyOp47
 70
     1
102
RTVSPropertyOp48
 70
     1
102
RTVSPropertyOp49
 70
     1
102
RTVSPropertyOp50
 70
     1
102
RTVSPropertyOp51
 70
     0
102
RTVSPropertyOp52
 70
     0
102
RTVSPropertyOp53
 70
     1
102
RTVSPropertyOp54
 70
     1
102
RTVSPropertyOp55
 70
     1
102
RTVSPropertyOp56
 70
     1
102
RTVSPropertyOp57
 70
     1
102
RTVSPropertyOp58
 70
     1
102
RTVSPropertyOp59
 70
     1
102
RTVSPropertyOp60
 70
     1
102
RTVSPropertyOp61
 70
     1
102
RTVSPropertyOp62
 70
     1
  0
XRECORD
  5
20AC
102
{ACAD_REACTORS
330
20AB
102
}
330
20AB
100
AcDbXrecord
280
     1
102
RTVSPost2010Prop28
280
     0
102
RTVSPost2010PropOp28
 70
     1
102
RTVSPost2010Prop29
280
     1
102
RTVSPost2010PropOp29
 70
     1
102
RTVSPost2010Prop30
280
     1
102
RTVSPost2010PropOp30
 70
     1
102
RTVSPost2010Prop31
280
     0
102
RTVSPost2010PropOp31
 70
     1
102
RTVSPost2010Prop32
280
     0
102
RTVSPost2010PropOp32
 70
     1
102
RTVSPost2010Prop33
280
     0
102
RTVSPost2010PropOp33
 70
     1
102
RTVSPost2010Prop34
280
     0
102
RTVSPost2010PropOp34
 70
     1
102
RTVSPost2010Prop35
280
     0
102
RTVSPost2010PropOp35
 70
     1
102
RTVSPost2010Prop36
280
     0
102
RTVSPost2010PropOp36
 70
     1
102
RTVSPost2010Prop37
 90
       50
102
RTVSPost2010PropOp37
 70
     1
102
RTVSPost2010Prop38
140
0.0
102
RTVSPost2010PropOp38
 70
     1
102
RTVSPost2010Prop39
140
1.0
102
RTVSPost2010PropOp39
 70
     1
102
RTVSPost2010Prop40
 90
        0
102
RTVSPost2010PropOp40
 70
     1
102
RTVSPost2010Prop41ColorIndex
 90
       18
102
RTVSPost2010Prop41ColorRGB
 90
        0
102
RTVSPost2010PropOp41
 70
     1
102
RTVSPost2010Prop42
 90
       50
102
RTVSPost2010PropOp42
 70
     1
102
RTVSPost2010Prop43
 90
        3
102
RTVSPost2010PropOp43
 70
     1
102
RTVSPost2010Prop44ColorIndex
 90
        5
102
RTVSPost2010Prop44ColorRGB
 90
      255
102
RTVSPost2010PropOp44
 70
     1
102
RTVSPost2010Prop45
280
     0
102
RTVSPost2010PropOp45
 70
     1
102
RTVSPost2010Prop46
 90
       50
102
RTVSPost2010PropOp46
 70
     1
102
RTVSPost2010Prop47
 90
       50
102
RTVSPost2010PropOp47
 70
     1
102
RTVSPost2010Prop48
 90
       50
102
RTVSPost2010PropOp48
 70
     1
102
RTVSPost2010Prop49
280
     0
102
RTVSPost2010PropOp49
 70
     1
102
RTVSPost2010Prop50
 90
       50
102
RTVSPost2010PropOp50
 70
     1
102
RTVSPost2010Prop51ColorIndex
 90
      256
102
RTVSPost2010Prop51ColorRGB
 90
-16777216
102
RTVSPost2010PropOp51
 70
     0
102
RTVSPost2010Prop52
140
1.0
102
RTVSPost2010PropOp52
 70
     0
102
RTVSPost2010Prop53
 90
        2
102
RTVSPost2010PropOp53
 70
     1
102
RTVSPost2010Prop54
  1
strokes_ogs.tif
102
RTVSPost2010PropOp54
 70
     1
102
RTVSPost2010Prop55
280
     0
102
RTVSPost2010PropOp55
 70
     1
102
RTVSPost2010Prop56
140
1.0
102
RTVSPost2010PropOp56
 70
     1
102
RTVSPost2010Prop57
140
1.0
102
RTVSPost2010PropOp57
 70
     1
102
RTVSPropertyOp0
 70
     1
102
RTVSPropertyOp1
 70
     1
102
RTVSPropertyOp2
 70
     1
102
RTVSPropertyOp3
 70
     1
102
RTVSPropertyOp4
 70
     1
102
RTVSPropertyOp5
 70
     1
102
RTVSPropertyOp6
 70
     1
102
RTVSPropertyOp7
 70
     1
102
RTVSPropertyOp8
 70
     1
102
RTVSPropertyOp9
 70
     1
102
RTVSPropertyOp10
 70
     1
102
RTVSPropertyOp11
 70
     1
102
RTVSPropertyOp12
 70
     1
102
RTVSPropertyOp13
 70
     1
102
RTVSPropertyOp14
 70
     1
102
RTVSPropertyOp15
 70
     1
102
RTVSPropertyOp16
 70
     1
102
RTVSPropertyOp17
 70
     1
102
RTVSPropertyOp18
 70
     1
102
RTVSPropertyOp19
 70
     1
102
RTVSPropertyOp20
 70
     1
102
RTVSPropertyOp21
 70
     1
102
RTVSPropertyOp22
 70
     1
102
RTVSPropertyOp23
 70
     1
102
RTVSPropertyOp24
 70
     1
102
RTVSPropertyOp25
 70
     1
102
RTVSPropertyOp26
 70
     1
102
RTVSPropertyOp27
 70
     1
102
RTVSPropertyOp28
 70
     1
102
RTVSPropertyOp29
 70
     1
102
RTVSPropertyOp30
 70
     1
102
RTVSPropertyOp31
 70
     1
102
RTVSPropertyOp32
 70
     1
102
RTVSPropertyOp33
 70
     1
102
RTVSPropertyOp34
 70
     1
102
RTVSPropertyOp35
 70
     1
102
RTVSPropertyOp36
 70
     1
102
RTVSPropertyOp37
 70
     1
102
RTVSPropertyOp38
 70
     1
102
RTVSPropertyOp39
 70
     1
102
RTVSPropertyOp40
 70
     1
102
RTVSPropertyOp41
 70
     1
102
RTVSPropertyOp42
 70
     1
102
RTVSPropertyOp43
 70
     1
102
RTVSPropertyOp44
 70
     1
102
RTVSPropertyOp45
 70
     1
102
RTVSPropertyOp46
 70
     1
102
RTVSPropertyOp47
 70
     1
102
RTVSPropertyOp48
 70
     1
102
RTVSPropertyOp49
 70
     1
102
RTVSPropertyOp50
 70
     1
102
RTVSPropertyOp51
 70
     0
102
RTVSPropertyOp52
 70
     0
102
RTVSPropertyOp53
 70
     1
102
RTVSPropertyOp54
 70
     1
102
RTVSPropertyOp55
 70
     1
102
RTVSPropertyOp56
 70
     1
102
RTVSPropertyOp57
 70
     1
102
RTVSPropertyOp58
 70
     1
102
RTVSPropertyOp59
 70
     1
102
RTVSPropertyOp60
 70
     1
102
RTVSPropertyOp61
 70
     1
102
RTVSPropertyOp62
 70
     1
  0
XRECORD
  5
20AA
102
{ACAD_REACTORS
330
20A9
102
}
330
20A9
100
AcDbXrecord
280
     1
102
RTVSPost2010Prop28
280
     0
102
RTVSPost2010PropOp28
 70
     1
102
RTVSPost2010Prop29
280
     1
102
RTVSPost2010PropOp29
 70
     1
102
RTVSPost2010Prop30
280
     1
102
RTVSPost2010PropOp30
 70
     1
102
RTVSPost2010Prop31
280
     0
102
RTVSPost2010PropOp31
 70
     1
102
RTVSPost2010Prop32
280
     0
102
RTVSPost2010PropOp32
 70
     1
102
RTVSPost2010Prop33
280
     0
102
RTVSPost2010PropOp33
 70
     1
102
RTVSPost2010Prop34
280
     0
102
RTVSPost2010PropOp34
 70
     1
102
RTVSPost2010Prop35
280
     0
102
RTVSPost2010PropOp35
 70
     1
102
RTVSPost2010Prop36
280
     0
102
RTVSPost2010PropOp36
 70
     1
102
RTVSPost2010Prop37
 90
       50
102
RTVSPost2010PropOp37
 70
     1
102
RTVSPost2010Prop38
140
0.0
102
RTVSPost2010PropOp38
 70
     1
102
RTVSPost2010Prop39
140
1.0
102
RTVSPost2010PropOp39
 70
     1
102
RTVSPost2010Prop40
 90
        0
102
RTVSPost2010PropOp40
 70
     1
102
RTVSPost2010Prop41ColorIndex
 90
       18
102
RTVSPost2010Prop41ColorRGB
 90
        0
102
RTVSPost2010PropOp41
 70
     1
102
RTVSPost2010Prop42
 90
       50
102
RTVSPost2010PropOp42
 70
     1
102
RTVSPost2010Prop43
 90
        3
102
RTVSPost2010PropOp43
 70
     1
102
RTVSPost2010Prop44ColorIndex
 90
        5
102
RTVSPost2010Prop44ColorRGB
 90
      255
102
RTVSPost2010PropOp44
 70
     1
102
RTVSPost2010Prop45
280
     0
102
RTVSPost2010PropOp45
 70
     1
102
RTVSPost2010Prop46
 90
       50
102
RTVSPost2010PropOp46
 70
     1
102
RTVSPost2010Prop47
 90
       50
102
RTVSPost2010PropOp47
 70
     1
102
RTVSPost2010Prop48
 90
       50
102
RTVSPost2010PropOp48
 70
     1
102
RTVSPost2010Prop49
280
     0
102
RTVSPost2010PropOp49
 70
     1
102
RTVSPost2010Prop50
 90
       50
102
RTVSPost2010PropOp50
 70
     1
102
RTVSPost2010Prop51ColorIndex
 90
      256
102
RTVSPost2010Prop51ColorRGB
 90
-16777216
102
RTVSPost2010PropOp51
 70
     0
102
RTVSPost2010Prop52
140
1.0
102
RTVSPost2010PropOp52
 70
     0
102
RTVSPost2010Prop53
 90
        2
102
RTVSPost2010PropOp53
 70
     1
102
RTVSPost2010Prop54
  1
strokes_ogs.tif
102
RTVSPost2010PropOp54
 70
     1
102
RTVSPost2010Prop55
280
     0
102
RTVSPost2010PropOp55
 70
     1
102
RTVSPost2010Prop56
140
1.0
102
RTVSPost2010PropOp56
 70
     1
102
RTVSPost2010Prop57
140
1.0
102
RTVSPost2010PropOp57
 70
     1
102
RTVSPropertyOp0
 70
     1
102
RTVSPropertyOp1
 70
     1
102
RTVSPropertyOp2
 70
     1
102
RTVSPropertyOp3
 70
     1
102
RTVSPropertyOp4
 70
     1
102
RTVSPropertyOp5
 70
     1
102
RTVSPropertyOp6
 70
     1
102
RTVSPropertyOp7
 70
     1
102
RTVSPropertyOp8
 70
     1
102
RTVSPropertyOp9
 70
     1
102
RTVSPropertyOp10
 70
     1
102
RTVSPropertyOp11
 70
     1
102
RTVSPropertyOp12
 70
     1
102
RTVSPropertyOp13
 70
     1
102
RTVSPropertyOp14
 70
     1
102
RTVSPropertyOp15
 70
     1
102
RTVSPropertyOp16
 70
     1
102
RTVSPropertyOp17
 70
     1
102
RTVSPropertyOp18
 70
     1
102
RTVSPropertyOp19
 70
     1
102
RTVSPropertyOp20
 70
     1
102
RTVSPropertyOp21
 70
     1
102
RTVSPropertyOp22
 70
     1
102
RTVSPropertyOp23
 70
     1
102
RTVSPropertyOp24
 70
     1
102
RTVSPropertyOp25
 70
     1
102
RTVSPropertyOp26
 70
     1
102
RTVSPropertyOp27
 70
     1
102
RTVSPropertyOp28
 70
     1
102
RTVSPropertyOp29
 70
     1
102
RTVSPropertyOp30
 70
     1
102
RTVSPropertyOp31
 70
     1
102
RTVSPropertyOp32
 70
     1
102
RTVSPropertyOp33
 70
     1
102
RTVSPropertyOp34
 70
     1
102
RTVSPropertyOp35
 70
     1
102
RTVSPropertyOp36
 70
     1
102
RTVSPropertyOp37
 70
     1
102
RTVSPropertyOp38
 70
     1
102
RTVSPropertyOp39
 70
     1
102
RTVSPropertyOp40
 70
     1
102
RTVSPropertyOp41
 70
     1
102
RTVSPropertyOp42
 70
     1
102
RTVSPropertyOp43
 70
     1
102
RTVSPropertyOp44
 70
     1
102
RTVSPropertyOp45
 70
     1
102
RTVSPropertyOp46
 70
     1
102
RTVSPropertyOp47
 70
     1
102
RTVSPropertyOp48
 70
     1
102
RTVSPropertyOp49
 70
     1
102
RTVSPropertyOp50
 70
     1
102
RTVSPropertyOp51
 70
     0
102
RTVSPropertyOp52
 70
     0
102
RTVSPropertyOp53
 70
     1
102
RTVSPropertyOp54
 70
     1
102
RTVSPropertyOp55
 70
     1
102
RTVSPropertyOp56
 70
     1
102
RTVSPropertyOp57
 70
     1
102
RTVSPropertyOp58
 70
     1
102
RTVSPropertyOp59
 70
     1
102
RTVSPropertyOp60
 70
     1
102
RTVSPropertyOp61
 70
     1
102
RTVSPropertyOp62
 70
     1
  0
XRECORD
  5
20A4
102
{ACAD_REACTORS
330
20A3
102
}
330
20A3
100
AcDbXrecord
280
     1
102
RTVSPost2010Prop28
280
     0
102
RTVSPost2010PropOp28
 70
     1
102
RTVSPost2010Prop29
280
     1
102
RTVSPost2010PropOp29
 70
     1
102
RTVSPost2010Prop30
280
     1
102
RTVSPost2010PropOp30
 70
     1
102
RTVSPost2010Prop31
280
     0
102
RTVSPost2010PropOp31
 70
     1
102
RTVSPost2010Prop32
280
     0
102
RTVSPost2010PropOp32
 70
     1
102
RTVSPost2010Prop33
280
     0
102
RTVSPost2010PropOp33
 70
     1
102
RTVSPost2010Prop34
280
     0
102
RTVSPost2010PropOp34
 70
     1
102
RTVSPost2010Prop35
280
     0
102
RTVSPost2010PropOp35
 70
     1
102
RTVSPost2010Prop36
280
     0
102
RTVSPost2010PropOp36
 70
     1
102
RTVSPost2010Prop37
 90
       50
102
RTVSPost2010PropOp37
 70
     1
102
RTVSPost2010Prop38
140
0.0
102
RTVSPost2010PropOp38
 70
     1
102
RTVSPost2010Prop39
140
1.0
102
RTVSPost2010PropOp39
 70
     1
102
RTVSPost2010Prop40
 90
        0
102
RTVSPost2010PropOp40
 70
     1
102
RTVSPost2010Prop41ColorIndex
 90
       18
102
RTVSPost2010Prop41ColorRGB
 90
        0
102
RTVSPost2010PropOp41
 70
     1
102
RTVSPost2010Prop42
 90
       50
102
RTVSPost2010PropOp42
 70
     1
102
RTVSPost2010Prop43
 90
        3
102
RTVSPost2010PropOp43
 70
     1
102
RTVSPost2010Prop44ColorIndex
 90
        5
102
RTVSPost2010Prop44ColorRGB
 90
      255
102
RTVSPost2010PropOp44
 70
     1
102
RTVSPost2010Prop45
280
     0
102
RTVSPost2010PropOp45
 70
     1
102
RTVSPost2010Prop46
 90
       50
102
RTVSPost2010PropOp46
 70
     1
102
RTVSPost2010Prop47
 90
       50
102
RTVSPost2010PropOp47
 70
     1
102
RTVSPost2010Prop48
 90
       50
102
RTVSPost2010PropOp48
 70
     1
102
RTVSPost2010Prop49
280
     0
102
RTVSPost2010PropOp49
 70
     1
102
RTVSPost2010Prop50
 90
       50
102
RTVSPost2010PropOp50
 70
     1
102
RTVSPost2010Prop51ColorIndex
 90
      256
102
RTVSPost2010Prop51ColorRGB
 90
-16777216
102
RTVSPost2010PropOp51
 70
     0
102
RTVSPost2010Prop52
140
1.0
102
RTVSPost2010PropOp52
 70
     0
102
RTVSPost2010Prop53
 90
        2
102
RTVSPost2010PropOp53
 70
     1
102
RTVSPost2010Prop54
  1
strokes_ogs.tif
102
RTVSPost2010PropOp54
 70
     1
102
RTVSPost2010Prop55
280
     0
102
RTVSPost2010PropOp55
 70
     1
102
RTVSPost2010Prop56
140
1.0
102
RTVSPost2010PropOp56
 70
     1
102
RTVSPost2010Prop57
140
1.0
102
RTVSPost2010PropOp57
 70
     1
102
RTVSPropertyOp0
 70
     1
102
RTVSPropertyOp1
 70
     1
102
RTVSPropertyOp2
 70
     1
102
RTVSPropertyOp3
 70
     1
102
RTVSPropertyOp4
 70
     1
102
RTVSPropertyOp5
 70
     1
102
RTVSPropertyOp6
 70
     1
102
RTVSPropertyOp7
 70
     1
102
RTVSPropertyOp8
 70
     1
102
RTVSPropertyOp9
 70
     1
102
RTVSPropertyOp10
 70
     1
102
RTVSPropertyOp11
 70
     1
102
RTVSPropertyOp12
 70
     1
102
RTVSPropertyOp13
 70
     1
102
RTVSPropertyOp14
 70
     1
102
RTVSPropertyOp15
 70
     1
102
RTVSPropertyOp16
 70
     1
102
RTVSPropertyOp17
 70
     1
102
RTVSPropertyOp18
 70
     1
102
RTVSPropertyOp19
 70
     1
102
RTVSPropertyOp20
 70
     1
102
RTVSPropertyOp21
 70
     1
102
RTVSPropertyOp22
 70
     1
102
RTVSPropertyOp23
 70
     1
102
RTVSPropertyOp24
 70
     1
102
RTVSPropertyOp25
 70
     1
102
RTVSPropertyOp26
 70
     1
102
RTVSPropertyOp27
 70
     1
102
RTVSPropertyOp28
 70
     1
102
RTVSPropertyOp29
 70
     1
102
RTVSPropertyOp30
 70
     1
102
RTVSPropertyOp31
 70
     1
102
RTVSPropertyOp32
 70
     1
102
RTVSPropertyOp33
 70
     1
102
RTVSPropertyOp34
 70
     1
102
RTVSPropertyOp35
 70
     1
102
RTVSPropertyOp36
 70
     1
102
RTVSPropertyOp37
 70
     1
102
RTVSPropertyOp38
 70
     1
102
RTVSPropertyOp39
 70
     1
102
RTVSPropertyOp40
 70
     1
102
RTVSPropertyOp41
 70
     1
102
RTVSPropertyOp42
 70
     1
102
RTVSPropertyOp43
 70
     1
102
RTVSPropertyOp44
 70
     1
102
RTVSPropertyOp45
 70
     1
102
RTVSPropertyOp46
 70
     1
102
RTVSPropertyOp47
 70
     1
102
RTVSPropertyOp48
 70
     1
102
RTVSPropertyOp49
 70
     1
102
RTVSPropertyOp50
 70
     1
102
RTVSPropertyOp51
 70
     0
102
RTVSPropertyOp52
 70
     0
102
RTVSPropertyOp53
 70
     1
102
RTVSPropertyOp54
 70
     1
102
RTVSPropertyOp55
 70
     1
102
RTVSPropertyOp56
 70
     1
102
RTVSPropertyOp57
 70
     1
102
RTVSPropertyOp58
 70
     1
102
RTVSPropertyOp59
 70
     1
102
RTVSPropertyOp60
 70
     1
102
RTVSPropertyOp61
 70
     1
102
RTVSPropertyOp62
 70
     1
  0
XRECORD
  5
20A6
102
{ACAD_REACTORS
330
20A5
102
}
330
20A5
100
AcDbXrecord
280
     1
102
RTVSPost2010Prop28
280
     0
102
RTVSPost2010PropOp28
 70
     1
102
RTVSPost2010Prop29
280
     1
102
RTVSPost2010PropOp29
 70
     1
102
RTVSPost2010Prop30
280
     1
102
RTVSPost2010PropOp30
 70
     1
102
RTVSPost2010Prop31
280
     0
102
RTVSPost2010PropOp31
 70
     1
102
RTVSPost2010Prop32
280
     0
102
RTVSPost2010PropOp32
 70
     1
102
RTVSPost2010Prop33
280
     0
102
RTVSPost2010PropOp33
 70
     1
102
RTVSPost2010Prop34
280
     0
102
RTVSPost2010PropOp34
 70
     1
102
RTVSPost2010Prop35
280
     0
102
RTVSPost2010PropOp35
 70
     1
102
RTVSPost2010Prop36
280
     0
102
RTVSPost2010PropOp36
 70
     1
102
RTVSPost2010Prop37
 90
       50
102
RTVSPost2010PropOp37
 70
     1
102
RTVSPost2010Prop38
140
0.0
102
RTVSPost2010PropOp38
 70
     1
102
RTVSPost2010Prop39
140
1.0
102
RTVSPost2010PropOp39
 70
     1
102
RTVSPost2010Prop40
 90
        0
102
RTVSPost2010PropOp40
 70
     1
102
RTVSPost2010Prop41ColorIndex
 90
       18
102
RTVSPost2010Prop41ColorRGB
 90
        0
102
RTVSPost2010PropOp41
 70
     1
102
RTVSPost2010Prop42
 90
       50
102
RTVSPost2010PropOp42
 70
     1
102
RTVSPost2010Prop43
 90
        3
102
RTVSPost2010PropOp43
 70
     1
102
RTVSPost2010Prop44ColorIndex
 90
        5
102
RTVSPost2010Prop44ColorRGB
 90
      255
102
RTVSPost2010PropOp44
 70
     1
102
RTVSPost2010Prop45
280
     0
102
RTVSPost2010PropOp45
 70
     1
102
RTVSPost2010Prop46
 90
       50
102
RTVSPost2010PropOp46
 70
     1
102
RTVSPost2010Prop47
 90
       50
102
RTVSPost2010PropOp47
 70
     1
102
RTVSPost2010Prop48
 90
       50
102
RTVSPost2010PropOp48
 70
     1
102
RTVSPost2010Prop49
280
     0
102
RTVSPost2010PropOp49
 70
     1
102
RTVSPost2010Prop50
 90
       50
102
RTVSPost2010PropOp50
 70
     1
102
RTVSPost2010Prop51ColorIndex
 90
      256
102
RTVSPost2010Prop51ColorRGB
 90
-16777216
102
RTVSPost2010PropOp51
 70
     0
102
RTVSPost2010Prop52
140
1.0
102
RTVSPost2010PropOp52
 70
     0
102
RTVSPost2010Prop53
 90
        2
102
RTVSPost2010PropOp53
 70
     1
102
RTVSPost2010Prop54
  1
strokes_ogs.tif
102
RTVSPost2010PropOp54
 70
     1
102
RTVSPost2010Prop55
280
     0
102
RTVSPost2010PropOp55
 70
     1
102
RTVSPost2010Prop56
140
1.0
102
RTVSPost2010PropOp56
 70
     1
102
RTVSPost2010Prop57
140
1.0
102
RTVSPost2010PropOp57
 70
     1
102
RTVSPropertyOp0
 70
     1
102
RTVSPropertyOp1
 70
     1
102
RTVSPropertyOp2
 70
     1
102
RTVSPropertyOp3
 70
     1
102
RTVSPropertyOp4
 70
     1
102
RTVSPropertyOp5
 70
     1
102
RTVSPropertyOp6
 70
     1
102
RTVSPropertyOp7
 70
     1
102
RTVSPropertyOp8
 70
     1
102
RTVSPropertyOp9
 70
     1
102
RTVSPropertyOp10
 70
     1
102
RTVSPropertyOp11
 70
     1
102
RTVSPropertyOp12
 70
     1
102
RTVSPropertyOp13
 70
     1
102
RTVSPropertyOp14
 70
     1
102
RTVSPropertyOp15
 70
     1
102
RTVSPropertyOp16
 70
     1
102
RTVSPropertyOp17
 70
     1
102
RTVSPropertyOp18
 70
     1
102
RTVSPropertyOp19
 70
     1
102
RTVSPropertyOp20
 70
     1
102
RTVSPropertyOp21
 70
     1
102
RTVSPropertyOp22
 70
     1
102
RTVSPropertyOp23
 70
     1
102
RTVSPropertyOp24
 70
     1
102
RTVSPropertyOp25
 70
     1
102
RTVSPropertyOp26
 70
     1
102
RTVSPropertyOp27
 70
     1
102
RTVSPropertyOp28
 70
     1
102
RTVSPropertyOp29
 70
     1
102
RTVSPropertyOp30
 70
     1
102
RTVSPropertyOp31
 70
     1
102
RTVSPropertyOp32
 70
     1
102
RTVSPropertyOp33
 70
     1
102
RTVSPropertyOp34
 70
     1
102
RTVSPropertyOp35
 70
     1
102
RTVSPropertyOp36
 70
     1
102
RTVSPropertyOp37
 70
     1
102
RTVSPropertyOp38
 70
     1
102
RTVSPropertyOp39
 70
     1
102
RTVSPropertyOp40
 70
     1
102
RTVSPropertyOp41
 70
     1
102
RTVSPropertyOp42
 70
     1
102
RTVSPropertyOp43
 70
     1
102
RTVSPropertyOp44
 70
     1
102
RTVSPropertyOp45
 70
     1
102
RTVSPropertyOp46
 70
     1
102
RTVSPropertyOp47
 70
     1
102
RTVSPropertyOp48
 70
     1
102
RTVSPropertyOp49
 70
     1
102
RTVSPropertyOp50
 70
     1
102
RTVSPropertyOp51
 70
     0
102
RTVSPropertyOp52
 70
     0
102
RTVSPropertyOp53
 70
     1
102
RTVSPropertyOp54
 70
     1
102
RTVSPropertyOp55
 70
     1
102
RTVSPropertyOp56
 70
     1
102
RTVSPropertyOp57
 70
     1
102
RTVSPropertyOp58
 70
     1
102
RTVSPropertyOp59
 70
     1
102
RTVSPropertyOp60
 70
     1
102
RTVSPropertyOp61
 70
     1
102
RTVSPropertyOp62
 70
     1
  0
XRECORD
  5
209C
102
{ACAD_REACTORS
330
209B
102
}
330
209B
100
AcDbXrecord
280
     1
102
RTVSPost2010Prop28
280
     0
102
RTVSPost2010PropOp28
 70
     1
102
RTVSPost2010Prop29
280
     1
102
RTVSPost2010PropOp29
 70
     1
102
RTVSPost2010Prop30
280
     1
102
RTVSPost2010PropOp30
 70
     1
102
RTVSPost2010Prop31
280
     0
102
RTVSPost2010PropOp31
 70
     1
102
RTVSPost2010Prop32
280
     0
102
RTVSPost2010PropOp32
 70
     1
102
RTVSPost2010Prop33
280
     0
102
RTVSPost2010PropOp33
 70
     1
102
RTVSPost2010Prop34
280
     0
102
RTVSPost2010PropOp34
 70
     1
102
RTVSPost2010Prop35
280
     0
102
RTVSPost2010PropOp35
 70
     1
102
RTVSPost2010Prop36
280
     0
102
RTVSPost2010PropOp36
 70
     1
102
RTVSPost2010Prop37
 90
       50
102
RTVSPost2010PropOp37
 70
     1
102
RTVSPost2010Prop38
140
0.0
102
RTVSPost2010PropOp38
 70
     1
102
RTVSPost2010Prop39
140
1.0
102
RTVSPost2010PropOp39
 70
     1
102
RTVSPost2010Prop40
 90
        0
102
RTVSPost2010PropOp40
 70
     1
102
RTVSPost2010Prop41ColorIndex
 90
       18
102
RTVSPost2010Prop41ColorRGB
 90
        0
102
RTVSPost2010PropOp41
 70
     1
102
RTVSPost2010Prop42
 90
       50
102
RTVSPost2010PropOp42
 70
     1
102
RTVSPost2010Prop43
 90
        3
102
RTVSPost2010PropOp43
 70
     1
102
RTVSPost2010Prop44ColorIndex
 90
        5
102
RTVSPost2010Prop44ColorRGB
 90
      255
102
RTVSPost2010PropOp44
 70
     1
102
RTVSPost2010Prop45
280
     0
102
RTVSPost2010PropOp45
 70
     1
102
RTVSPost2010Prop46
 90
       50
102
RTVSPost2010PropOp46
 70
     1
102
RTVSPost2010Prop47
 90
       50
102
RTVSPost2010PropOp47
 70
     1
102
RTVSPost2010Prop48
 90
       50
102
RTVSPost2010PropOp48
 70
     1
102
RTVSPost2010Prop49
280
     0
102
RTVSPost2010PropOp49
 70
     1
102
RTVSPost2010Prop50
 90
       50
102
RTVSPost2010PropOp50
 70
     1
102
RTVSPost2010Prop51ColorIndex
 90
      256
102
RTVSPost2010Prop51ColorRGB
 90
-16777216
102
RTVSPost2010PropOp51
 70
     0
102
RTVSPost2010Prop52
140
1.0
102
RTVSPost2010PropOp52
 70
     0
102
RTVSPost2010Prop53
 90
        2
102
RTVSPost2010PropOp53
 70
     1
102
RTVSPost2010Prop54
  1
strokes_ogs.tif
102
RTVSPost2010PropOp54
 70
     1
102
RTVSPost2010Prop55
280
     0
102
RTVSPost2010PropOp55
 70
     1
102
RTVSPost2010Prop56
140
1.0
102
RTVSPost2010PropOp56
 70
     1
102
RTVSPost2010Prop57
140
1.0
102
RTVSPost2010PropOp57
 70
     1
102
RTVSPropertyOp0
 70
     1
102
RTVSPropertyOp1
 70
     1
102
RTVSPropertyOp2
 70
     1
102
RTVSPropertyOp3
 70
     1
102
RTVSPropertyOp4
 70
     1
102
RTVSPropertyOp5
 70
     1
102
RTVSPropertyOp6
 70
     1
102
RTVSPropertyOp7
 70
     1
102
RTVSPropertyOp8
 70
     1
102
RTVSPropertyOp9
 70
     1
102
RTVSPropertyOp10
 70
     1
102
RTVSPropertyOp11
 70
     1
102
RTVSPropertyOp12
 70
     1
102
RTVSPropertyOp13
 70
     1
102
RTVSPropertyOp14
 70
     1
102
RTVSPropertyOp15
 70
     1
102
RTVSPropertyOp16
 70
     1
102
RTVSPropertyOp17
 70
     1
102
RTVSPropertyOp18
 70
     1
102
RTVSPropertyOp19
 70
     1
102
RTVSPropertyOp20
 70
     1
102
RTVSPropertyOp21
 70
     1
102
RTVSPropertyOp22
 70
     1
102
RTVSPropertyOp23
 70
     1
102
RTVSPropertyOp24
 70
     1
102
RTVSPropertyOp25
 70
     1
102
RTVSPropertyOp26
 70
     1
102
RTVSPropertyOp27
 70
     1
102
RTVSPropertyOp28
 70
     1
102
RTVSPropertyOp29
 70
     1
102
RTVSPropertyOp30
 70
     1
102
RTVSPropertyOp31
 70
     1
102
RTVSPropertyOp32
 70
     1
102
RTVSPropertyOp33
 70
     1
102
RTVSPropertyOp34
 70
     1
102
RTVSPropertyOp35
 70
     1
102
RTVSPropertyOp36
 70
     1
102
RTVSPropertyOp37
 70
     1
102
RTVSPropertyOp38
 70
     1
102
RTVSPropertyOp39
 70
     1
102
RTVSPropertyOp40
 70
     1
102
RTVSPropertyOp41
 70
     1
102
RTVSPropertyOp42
 70
     1
102
RTVSPropertyOp43
 70
     1
102
RTVSPropertyOp44
 70
     1
102
RTVSPropertyOp45
 70
     1
102
RTVSPropertyOp46
 70
     1
102
RTVSPropertyOp47
 70
     1
102
RTVSPropertyOp48
 70
     1
102
RTVSPropertyOp49
 70
     1
102
RTVSPropertyOp50
 70
     1
102
RTVSPropertyOp51
 70
     0
102
RTVSPropertyOp52
 70
     0
102
RTVSPropertyOp53
 70
     1
102
RTVSPropertyOp54
 70
     1
102
RTVSPropertyOp55
 70
     1
102
RTVSPropertyOp56
 70
     1
102
RTVSPropertyOp57
 70
     1
102
RTVSPropertyOp58
 70
     1
102
RTVSPropertyOp59
 70
     1
102
RTVSPropertyOp60
 70
     1
102
RTVSPropertyOp61
 70
     1
102
RTVSPropertyOp62
 70
     1
  0
XRECORD
  5
2090
102
{ACAD_REACTORS
330
208F
102
}
330
208F
100
AcDbXrecord
280
     1
102
RTVSPost2010Prop28
280
     0
102
RTVSPost2010PropOp28
 70
     1
102
RTVSPost2010Prop29
280
     1
102
RTVSPost2010PropOp29
 70
     1
102
RTVSPost2010Prop30
280
     1
102
RTVSPost2010PropOp30
 70
     1
102
RTVSPost2010Prop31
280
     0
102
RTVSPost2010PropOp31
 70
     1
102
RTVSPost2010Prop32
280
     0
102
RTVSPost2010PropOp32
 70
     1
102
RTVSPost2010Prop33
280
     0
102
RTVSPost2010PropOp33
 70
     1
102
RTVSPost2010Prop34
280
     0
102
RTVSPost2010PropOp34
 70
     1
102
RTVSPost2010Prop35
280
     0
102
RTVSPost2010PropOp35
 70
     1
102
RTVSPost2010Prop36
280
     0
102
RTVSPost2010PropOp36
 70
     1
102
RTVSPost2010Prop37
 90
       50
102
RTVSPost2010PropOp37
 70
     1
102
RTVSPost2010Prop38
140
0.0
102
RTVSPost2010PropOp38
 70
     1
102
RTVSPost2010Prop39
140
1.0
102
RTVSPost2010PropOp39
 70
     1
102
RTVSPost2010Prop40
 90
        0
102
RTVSPost2010PropOp40
 70
     1
102
RTVSPost2010Prop41ColorIndex
 90
       18
102
RTVSPost2010Prop41ColorRGB
 90
        0
102
RTVSPost2010PropOp41
 70
     1
102
RTVSPost2010Prop42
 90
       50
102
RTVSPost2010PropOp42
 70
     1
102
RTVSPost2010Prop43
 90
        3
102
RTVSPost2010PropOp43
 70
     1
102
RTVSPost2010Prop44ColorIndex
 90
        5
102
RTVSPost2010Prop44ColorRGB
 90
      255
102
RTVSPost2010PropOp44
 70
     1
102
RTVSPost2010Prop45
280
     0
102
RTVSPost2010PropOp45
 70
     1
102
RTVSPost2010Prop46
 90
       50
102
RTVSPost2010PropOp46
 70
     1
102
RTVSPost2010Prop47
 90
       50
102
RTVSPost2010PropOp47
 70
     1
102
RTVSPost2010Prop48
 90
       50
102
RTVSPost2010PropOp48
 70
     1
102
RTVSPost2010Prop49
280
     0
102
RTVSPost2010PropOp49
 70
     1
102
RTVSPost2010Prop50
 90
       50
102
RTVSPost2010PropOp50
 70
     1
102
RTVSPost2010Prop51ColorIndex
 90
      256
102
RTVSPost2010Prop51ColorRGB
 90
-16777216
102
RTVSPost2010PropOp51
 70
     0
102
RTVSPost2010Prop52
140
1.0
102
RTVSPost2010PropOp52
 70
     0
102
RTVSPost2010Prop53
 90
        2
102
RTVSPost2010PropOp53
 70
     1
102
RTVSPost2010Prop54
  1
strokes_ogs.tif
102
RTVSPost2010PropOp54
 70
     1
102
RTVSPost2010Prop55
280
     0
102
RTVSPost2010PropOp55
 70
     1
102
RTVSPost2010Prop56
140
1.0
102
RTVSPost2010PropOp56
 70
     1
102
RTVSPost2010Prop57
140
1.0
102
RTVSPost2010PropOp57
 70
     1
102
RTVSPropertyOp0
 70
     1
102
RTVSPropertyOp1
 70
     1
102
RTVSPropertyOp2
 70
     1
102
RTVSPropertyOp3
 70
     1
102
RTVSPropertyOp4
 70
     1
102
RTVSPropertyOp5
 70
     1
102
RTVSPropertyOp6
 70
     1
102
RTVSPropertyOp7
 70
     1
102
RTVSPropertyOp8
 70
     1
102
RTVSPropertyOp9
 70
     1
102
RTVSPropertyOp10
 70
     1
102
RTVSPropertyOp11
 70
     1
102
RTVSPropertyOp12
 70
     1
102
RTVSPropertyOp13
 70
     1
102
RTVSPropertyOp14
 70
     1
102
RTVSPropertyOp15
 70
     1
102
RTVSPropertyOp16
 70
     1
102
RTVSPropertyOp17
 70
     1
102
RTVSPropertyOp18
 70
     1
102
RTVSPropertyOp19
 70
     1
102
RTVSPropertyOp20
 70
     1
102
RTVSPropertyOp21
 70
     1
102
RTVSPropertyOp22
 70
     1
102
RTVSPropertyOp23
 70
     1
102
RTVSPropertyOp24
 70
     1
102
RTVSPropertyOp25
 70
     1
102
RTVSPropertyOp26
 70
     1
102
RTVSPropertyOp27
 70
     1
102
RTVSPropertyOp28
 70
     1
102
RTVSPropertyOp29
 70
     1
102
RTVSPropertyOp30
 70
     1
102
RTVSPropertyOp31
 70
     1
102
RTVSPropertyOp32
 70
     1
102
RTVSPropertyOp33
 70
     1
102
RTVSPropertyOp34
 70
     1
102
RTVSPropertyOp35
 70
     1
102
RTVSPropertyOp36
 70
     1
102
RTVSPropertyOp37
 70
     1
102
RTVSPropertyOp38
 70
     1
102
RTVSPropertyOp39
 70
     1
102
RTVSPropertyOp40
 70
     1
102
RTVSPropertyOp41
 70
     1
102
RTVSPropertyOp42
 70
     1
102
RTVSPropertyOp43
 70
     1
102
RTVSPropertyOp44
 70
     1
102
RTVSPropertyOp45
 70
     1
102
RTVSPropertyOp46
 70
     1
102
RTVSPropertyOp47
 70
     1
102
RTVSPropertyOp48
 70
     1
102
RTVSPropertyOp49
 70
     1
102
RTVSPropertyOp50
 70
     1
102
RTVSPropertyOp51
 70
     0
102
RTVSPropertyOp52
 70
     0
102
RTVSPropertyOp53
 70
     1
102
RTVSPropertyOp54
 70
     1
102
RTVSPropertyOp55
 70
     1
102
RTVSPropertyOp56
 70
     1
102
RTVSPropertyOp57
 70
     1
102
RTVSPropertyOp58
 70
     1
102
RTVSPropertyOp59
 70
     1
102
RTVSPropertyOp60
 70
     1
102
RTVSPropertyOp61
 70
     1
102
RTVSPropertyOp62
 70
     1
  0
XRECORD
  5
20A8
102
{ACAD_REACTORS
330
20A7
102
}
330
20A7
100
AcDbXrecord
280
     1
102
RTVSPost2010Prop28
280
     0
102
RTVSPost2010PropOp28
 70
     1
102
RTVSPost2010Prop29
280
     1
102
RTVSPost2010PropOp29
 70
     1
102
RTVSPost2010Prop30
280
     1
102
RTVSPost2010PropOp30
 70
     1
102
RTVSPost2010Prop31
280
     0
102
RTVSPost2010PropOp31
 70
     1
102
RTVSPost2010Prop32
280
     0
102
RTVSPost2010PropOp32
 70
     1
102
RTVSPost2010Prop33
280
     0
102
RTVSPost2010PropOp33
 70
     1
102
RTVSPost2010Prop34
280
     0
102
RTVSPost2010PropOp34
 70
     1
102
RTVSPost2010Prop35
280
     0
102
RTVSPost2010PropOp35
 70
     1
102
RTVSPost2010Prop36
280
     0
102
RTVSPost2010PropOp36
 70
     1
102
RTVSPost2010Prop37
 90
       50
102
RTVSPost2010PropOp37
 70
     1
102
RTVSPost2010Prop38
140
0.0
102
RTVSPost2010PropOp38
 70
     1
102
RTVSPost2010Prop39
140
1.0
102
RTVSPost2010PropOp39
 70
     1
102
RTVSPost2010Prop40
 90
        0
102
RTVSPost2010PropOp40
 70
     1
102
RTVSPost2010Prop41ColorIndex
 90
       18
102
RTVSPost2010Prop41ColorRGB
 90
        0
102
RTVSPost2010PropOp41
 70
     1
102
RTVSPost2010Prop42
 90
       50
102
RTVSPost2010PropOp42
 70
     1
102
RTVSPost2010Prop43
 90
        3
102
RTVSPost2010PropOp43
 70
     1
102
RTVSPost2010Prop44ColorIndex
 90
        5
102
RTVSPost2010Prop44ColorRGB
 90
      255
102
RTVSPost2010PropOp44
 70
     1
102
RTVSPost2010Prop45
280
     0
102
RTVSPost2010PropOp45
 70
     1
102
RTVSPost2010Prop46
 90
       50
102
RTVSPost2010PropOp46
 70
     1
102
RTVSPost2010Prop47
 90
       50
102
RTVSPost2010PropOp47
 70
     1
102
RTVSPost2010Prop48
 90
       50
102
RTVSPost2010PropOp48
 70
     1
102
RTVSPost2010Prop49
280
     0
102
RTVSPost2010PropOp49
 70
     1
102
RTVSPost2010Prop50
 90
       50
102
RTVSPost2010PropOp50
 70
     1
102
RTVSPost2010Prop51ColorIndex
 90
      256
102
RTVSPost2010Prop51ColorRGB
 90
-16777216
102
RTVSPost2010PropOp51
 70
     0
102
RTVSPost2010Prop52
140
1.0
102
RTVSPost2010PropOp52
 70
     0
102
RTVSPost2010Prop53
 90
        2
102
RTVSPost2010PropOp53
 70
     1
102
RTVSPost2010Prop54
  1
strokes_ogs.tif
102
RTVSPost2010PropOp54
 70
     1
102
RTVSPost2010Prop55
280
     0
102
RTVSPost2010PropOp55
 70
     1
102
RTVSPost2010Prop56
140
1.0
102
RTVSPost2010PropOp56
 70
     1
102
RTVSPost2010Prop57
140
1.0
102
RTVSPost2010PropOp57
 70
     1
102
RTVSPropertyOp0
 70
     1
102
RTVSPropertyOp1
 70
     1
102
RTVSPropertyOp2
 70
     1
102
RTVSPropertyOp3
 70
     1
102
RTVSPropertyOp4
 70
     1
102
RTVSPropertyOp5
 70
     1
102
RTVSPropertyOp6
 70
     1
102
RTVSPropertyOp7
 70
     1
102
RTVSPropertyOp8
 70
     1
102
RTVSPropertyOp9
 70
     1
102
RTVSPropertyOp10
 70
     1
102
RTVSPropertyOp11
 70
     1
102
RTVSPropertyOp12
 70
     1
102
RTVSPropertyOp13
 70
     1
102
RTVSPropertyOp14
 70
     1
102
RTVSPropertyOp15
 70
     1
102
RTVSPropertyOp16
 70
     1
102
RTVSPropertyOp17
 70
     1
102
RTVSPropertyOp18
 70
     1
102
RTVSPropertyOp19
 70
     1
102
RTVSPropertyOp20
 70
     1
102
RTVSPropertyOp21
 70
     1
102
RTVSPropertyOp22
 70
     1
102
RTVSPropertyOp23
 70
     1
102
RTVSPropertyOp24
 70
     1
102
RTVSPropertyOp25
 70
     1
102
RTVSPropertyOp26
 70
     1
102
RTVSPropertyOp27
 70
     1
102
RTVSPropertyOp28
 70
     1
102
RTVSPropertyOp29
 70
     1
102
RTVSPropertyOp30
 70
     1
102
RTVSPropertyOp31
 70
     1
102
RTVSPropertyOp32
 70
     1
102
RTVSPropertyOp33
 70
     1
102
RTVSPropertyOp34
 70
     1
102
RTVSPropertyOp35
 70
     1
102
RTVSPropertyOp36
 70
     1
102
RTVSPropertyOp37
 70
     1
102
RTVSPropertyOp38
 70
     1
102
RTVSPropertyOp39
 70
     1
102
RTVSPropertyOp40
 70
     1
102
RTVSPropertyOp41
 70
     1
102
RTVSPropertyOp42
 70
     1
102
RTVSPropertyOp43
 70
     1
102
RTVSPropertyOp44
 70
     1
102
RTVSPropertyOp45
 70
     1
102
RTVSPropertyOp46
 70
     1
102
RTVSPropertyOp47
 70
     1
102
RTVSPropertyOp48
 70
     1
102
RTVSPropertyOp49
 70
     1
102
RTVSPropertyOp50
 70
     1
102
RTVSPropertyOp51
 70
     0
102
RTVSPropertyOp52
 70
     0
102
RTVSPropertyOp53
 70
     1
102
RTVSPropertyOp54
 70
     1
102
RTVSPropertyOp55
 70
     1
102
RTVSPropertyOp56
 70
     1
102
RTVSPropertyOp57
 70
     1
102
RTVSPropertyOp58
 70
     1
102
RTVSPropertyOp59
 70
     1
102
RTVSPropertyOp60
 70
     1
102
RTVSPropertyOp61
 70
     1
102
RTVSPropertyOp62
 70
     1
  0
XRECORD
  5
1E24
102
{ACAD_REACTORS
330
1E23
102
}
330
1E23
100
AcDbXrecord
280
     1
330
1BA2
  0
ACDBASSOCARRAYACTIONBODY
  5
1E39
330
1E38
100
AcDbAssocActionBody
 90
        1
100
AcDbAssocParamBasedActionBody
 90
        0
 90
        0
 90
        3
360
1E3A
360
1E3B
360
1E3F
 90
        0
 90
        9
 90
        0
  1
AlignItems
 90
        0
 90
        1
 90
        0
330
0
330
0
 90
        0
  1
AxesAngle
 90
        2
 90
        1
 40
1.570796326794896
330
0
330
0
 90
        0
  1
ItemSpacing
 90
        1
 90
        1
 40
12.5569
330
0
330
0
 90
        0
  1
Items
 90
        0
 90
        1
 90
       78
330
0
330
0
 90
        0
  1
LevelSpacing
 90
        1
 90
        1
 40
1.0
330
0
330
0
 90
        0
  1
Levels
 90
        0
 90
        1
 90
        1
330
0
330
0
 90
        0
  1
RowElevation
 90
        1
 90
        1
 40
0.0
330
0
330
0
 90
        0
  1
RowSpacing
 90
        1
 90
        1
 40
37.5
330
0
330
0
 90
        0
  1
Rows
 90
        0
 90
        1
 90
        1
330
0
330
0
100
AcDbAssocArrayActionBody
 90
        1
  1
AcDbAssocArrayRectangularParameters
 90
        0
 90
       78
  1
AcDbAssocArrayItem
100
AcDbAssocArrayItem
 90
        0
 90
        0
 90
        0
 90
        0
 90
        8
 11
0.0
 21
0.0
 31
0.0
330
1E41
100
AcDbAssocArrayItem
 90
        0
 90
        1
 90
        0
 90
        0
 90
        8
 11
12.5569
 21
0.0
 31
0.0
330
1E42
100
AcDbAssocArrayItem
 90
        0
 90
        2
 90
        0
 90
        0
 90
        8
 11
25.1138
 21
0.0
 31
0.0
330
1E43
100
AcDbAssocArrayItem
 90
        0
 90
        3
 90
        0
 90
        0
 90
        8
 11
37.6707
 21
0.0
 31
0.0
330
1E44
100
AcDbAssocArrayItem
 90
        0
 90
        4
 90
        0
 90
        0
 90
        8
 11
50.2276
 21
0.0
 31
0.0
330
1E45
100
AcDbAssocArrayItem
 90
        0
 90
        5
 90
        0
 90
        0
 90
        8
 11
62.7845
 21
0.0
 31
0.0
330
1E46
100
AcDbAssocArrayItem
 90
        0
 90
        6
 90
        0
 90
        0
 90
        8
 11
75.3414
 21
0.0
 31
0.0
330
1E47
100
AcDbAssocArrayItem
 90
        0
 90
        7
 90
        0
 90
        0
 90
        8
 11
87.8983
 21
0.0
 31
0.0
330
1E48
100
AcDbAssocArrayItem
 90
        0
 90
        8
 90
        0
 90
        0
 90
        8
 11
100.4552
 21
0.0
 31
0.0
330
1E49
100
AcDbAssocArrayItem
 90
        0
 90
        9
 90
        0
 90
        0
 90
        8
 11
113.0121
 21
0.0
 31
0.0
330
1E4A
100
AcDbAssocArrayItem
 90
        0
 90
       10
 90
        0
 90
        0
 90
        8
 11
125.569
 21
0.0
 31
0.0
330
1E4B
100
AcDbAssocArrayItem
 90
        0
 90
       11
 90
        0
 90
        0
 90
        8
 11
138.1259
 21
0.0
 31
0.0
330
1E4C
100
AcDbAssocArrayItem
 90
        0
 90
       12
 90
        0
 90
        0
 90
        8
 11
150.6828
 21
0.0
 31
0.0
330
1E4D
100
AcDbAssocArrayItem
 90
        0
 90
       13
 90
        0
 90
        0
 90
        8
 11
163.2397
 21
0.0
 31
0.0
330
1E4E
100
AcDbAssocArrayItem
 90
        0
 90
       14
 90
        0
 90
        0
 90
        8
 11
175.7966
 21
0.0
 31
0.0
330
1E4F
100
AcDbAssocArrayItem
 90
        0
 90
       15
 90
        0
 90
        0
 90
        8
 11
188.3535
 21
0.0
 31
0.0
330
1E50
100
AcDbAssocArrayItem
 90
        0
 90
       16
 90
        0
 90
        0
 90
        8
 11
200.9104
 21
0.0
 31
0.0
330
1E51
100
AcDbAssocArrayItem
 90
        0
 90
       17
 90
        0
 90
        0
 90
        8
 11
213.4673
 21
0.0
 31
0.0
330
1E52
100
AcDbAssocArrayItem
 90
        0
 90
       18
 90
        0
 90
        0
 90
        8
 11
226.0242
 21
0.0
 31
0.0
330
1E53
100
AcDbAssocArrayItem
 90
        0
 90
       19
 90
        0
 90
        0
 90
        8
 11
238.5811
 21
0.0
 31
0.0
330
1E54
100
AcDbAssocArrayItem
 90
        0
 90
       20
 90
        0
 90
        0
 90
        8
 11
251.138
 21
0.0
 31
0.0
330
1E55
100
AcDbAssocArrayItem
 90
        0
 90
       21
 90
        0
 90
        0
 90
        8
 11
263.6949
 21
0.0
 31
0.0
330
1E56
100
AcDbAssocArrayItem
 90
        0
 90
       22
 90
        0
 90
        0
 90
        8
 11
276.2518
 21
0.0
 31
0.0
330
1E57
100
AcDbAssocArrayItem
 90
        0
 90
       23
 90
        0
 90
        0
 90
        8
 11
288.8087
 21
0.0
 31
0.0
330
1E58
100
AcDbAssocArrayItem
 90
        0
 90
       24
 90
        0
 90
        0
 90
        8
 11
301.3656000000001
 21
0.0
 31
0.0
330
1E59
100
AcDbAssocArrayItem
 90
        0
 90
       25
 90
        0
 90
        0
 90
        8
 11
313.9225
 21
0.0
 31
0.0
330
1E5A
100
AcDbAssocArrayItem
 90
        0
 90
       26
 90
        0
 90
        0
 90
        8
 11
326.4794
 21
0.0
 31
0.0
330
1E5B
100
AcDbAssocArrayItem
 90
        0
 90
       27
 90
        0
 90
        0
 90
        8
 11
339.0363000000001
 21
0.0
 31
0.0
330
1E5C
100
AcDbAssocArrayItem
 90
        0
 90
       28
 90
        0
 90
        0
 90
        8
 11
351.5932
 21
0.0
 31
0.0
330
1E5D
100
AcDbAssocArrayItem
 90
        0
 90
       29
 90
        0
 90
        0
 90
        8
 11
364.1501
 21
0.0
 31
0.0
330
1E5E
100
AcDbAssocArrayItem
 90
        0
 90
       30
 90
        0
 90
        0
 90
        8
 11
376.707
 21
0.0
 31
0.0
330
1E5F
100
AcDbAssocArrayItem
 90
        0
 90
       31
 90
        0
 90
        0
 90
        8
 11
389.2639
 21
0.0
 31
0.0
330
1E60
100
AcDbAssocArrayItem
 90
        0
 90
       32
 90
        0
 90
        0
 90
        8
 11
401.8208
 21
0.0
 31
0.0
330
1E61
100
AcDbAssocArrayItem
 90
        0
 90
       33
 90
        0
 90
        0
 90
        8
 11
414.3777
 21
0.0
 31
0.0
330
1E62
100
AcDbAssocArrayItem
 90
        0
 90
       34
 90
        0
 90
        0
 90
        8
 11
426.9346
 21
0.0
 31
0.0
330
1E63
100
AcDbAssocArrayItem
 90
        0
 90
       35
 90
        0
 90
        0
 90
        8
 11
439.4915
 21
0.0
 31
0.0
330
1E64
100
AcDbAssocArrayItem
 90
        0
 90
       36
 90
        0
 90
        0
 90
        8
 11
452.0484
 21
0.0
 31
0.0
330
1E65
100
AcDbAssocArrayItem
 90
        0
 90
       37
 90
        0
 90
        0
 90
        8
 11
464.6053
 21
0.0
 31
0.0
330
1E66
100
AcDbAssocArrayItem
 90
        0
 90
       38
 90
        0
 90
        0
 90
        8
 11
477.1622
 21
0.0
 31
0.0
330
1E67
100
AcDbAssocArrayItem
 90
        0
 90
       39
 90
        0
 90
        0
 90
        8
 11
489.7191
 21
0.0
 31
0.0
330
1E68
100
AcDbAssocArrayItem
 90
        0
 90
       40
 90
        0
 90
        0
 90
        8
 11
502.2759999999999
 21
0.0
 31
0.0
330
1E69
100
AcDbAssocArrayItem
 90
        0
 90
       41
 90
        0
 90
        0
 90
        8
 11
514.8329
 21
0.0
 31
0.0
330
1E6A
100
AcDbAssocArrayItem
 90
        0
 90
       42
 90
        0
 90
        0
 90
        8
 11
527.3898
 21
0.0
 31
0.0
330
1E6B
100
AcDbAssocArrayItem
 90
        0
 90
       43
 90
        0
 90
        0
 90
        8
 11
539.9467
 21
0.0
 31
0.0
330
1E6C
100
AcDbAssocArrayItem
 90
        0
 90
       44
 90
        0
 90
        0
 90
        8
 11
552.5036
 21
0.0
 31
0.0
330
1E6D
100
AcDbAssocArrayItem
 90
        0
 90
       45
 90
        0
 90
        0
 90
        8
 11
565.0605
 21
0.0
 31
0.0
330
1E6E
100
AcDbAssocArrayItem
 90
        0
 90
       46
 90
        0
 90
        0
 90
        8
 11
577.6174
 21
0.0
 31
0.0
330
1E6F
100
AcDbAssocArrayItem
 90
        0
 90
       47
 90
        0
 90
        0
 90
        8
 11
590.1743
 21
0.0
 31
0.0
330
1E70
100
AcDbAssocArrayItem
 90
        0
 90
       48
 90
        0
 90
        0
 90
        8
 11
602.7312000000001
 21
0.0
 31
0.0
330
1E71
100
AcDbAssocArrayItem
 90
        0
 90
       49
 90
        0
 90
        0
 90
        8
 11
615.2880999999999
 21
0.0
 31
0.0
330
1E72
100
AcDbAssocArrayItem
 90
        0
 90
       50
 90
        0
 90
        0
 90
        8
 11
627.845
 21
0.0
 31
0.0
330
1E73
100
AcDbAssocArrayItem
 90
        0
 90
       51
 90
        0
 90
        0
 90
        8
 11
640.4019
 21
0.0
 31
0.0
330
1E74
100
AcDbAssocArrayItem
 90
        0
 90
       52
 90
        0
 90
        0
 90
        8
 11
652.9588
 21
0.0
 31
0.0
330
1E75
100
AcDbAssocArrayItem
 90
        0
 90
       53
 90
        0
 90
        0
 90
        8
 11
665.5157
 21
0.0
 31
0.0
330
1E76
100
AcDbAssocArrayItem
 90
        0
 90
       54
 90
        0
 90
        0
 90
        8
 11
678.0726000000001
 21
0.0
 31
0.0
330
1E77
100
AcDbAssocArrayItem
 90
        0
 90
       55
 90
        0
 90
        0
 90
        8
 11
690.6295
 21
0.0
 31
0.0
330
1E78
100
AcDbAssocArrayItem
 90
        0
 90
       56
 90
        0
 90
        0
 90
        8
 11
703.1864
 21
0.0
 31
0.0
330
1E79
100
AcDbAssocArrayItem
 90
        0
 90
       57
 90
        0
 90
        0
 90
        8
 11
715.7433000000001
 21
0.0
 31
0.0
330
1E7A
100
AcDbAssocArrayItem
 90
        0
 90
       58
 90
        0
 90
        0
 90
        8
 11
728.3002
 21
0.0
 31
0.0
330
1E7B
100
AcDbAssocArrayItem
 90
        0
 90
       59
 90
        0
 90
        0
 90
        8
 11
740.8571000000001
 21
0.0
 31
0.0
330
1E7C
100
AcDbAssocArrayItem
 90
        0
 90
       60
 90
        0
 90
        0
 90
        8
 11
753.4139999999999
 21
0.0
 31
0.0
330
1E7D
100
AcDbAssocArrayItem
 90
        0
 90
       61
 90
        0
 90
        0
 90
        8
 11
765.9709
 21
0.0
 31
0.0
330
1E7E
100
AcDbAssocArrayItem
 90
        0
 90
       62
 90
        0
 90
        0
 90
        8
 11
778.5278
 21
0.0
 31
0.0
330
1E7F
100
AcDbAssocArrayItem
 90
        0
 90
       63
 90
        0
 90
        0
 90
        8
 11
791.0847
 21
0.0
 31
0.0
330
1E80
100
AcDbAssocArrayItem
 90
        0
 90
       64
 90
        0
 90
        0
 90
        8
 11
803.6416
 21
0.0
 31
0.0
330
1E81
100
AcDbAssocArrayItem
 90
        0
 90
       65
 90
        0
 90
        0
 90
        8
 11
816.1985000000001
 21
0.0
 31
0.0
330
1E82
100
AcDbAssocArrayItem
 90
        0
 90
       66
 90
        0
 90
        0
 90
        8
 11
828.7554
 21
0.0
 31
0.0
330
1E83
100
AcDbAssocArrayItem
 90
        0
 90
       67
 90
        0
 90
        0
 90
        8
 11
841.3123
 21
0.0
 31
0.0
330
1E84
100
AcDbAssocArrayItem
 90
        0
 90
       68
 90
        0
 90
        0
 90
        8
 11
853.8692000000001
 21
0.0
 31
0.0
330
1E85
100
AcDbAssocArrayItem
 90
        0
 90
       69
 90
        0
 90
        0
 90
        8
 11
866.4260999999999
 21
0.0
 31
0.0
330
1E86
100
AcDbAssocArrayItem
 90
        0
 90
       70
 90
        0
 90
        0
 90
        8
 11
878.983
 21
0.0
 31
0.0
330
1E87
100
AcDbAssocArrayItem
 90
        0
 90
       71
 90
        0
 90
        0
 90
        8
 11
891.5399
 21
0.0
 31
0.0
330
1E88
100
AcDbAssocArrayItem
 90
        0
 90
       72
 90
        0
 90
        0
 90
        8
 11
904.0968000000001
 21
0.0
 31
0.0
330
1E89
100
AcDbAssocArrayItem
 90
        0
 90
       73
 90
        0
 90
        0
 90
        8
 11
916.6537000000001
 21
0.0
 31
0.0
330
1E8A
100
AcDbAssocArrayItem
 90
        0
 90
       74
 90
        0
 90
        0
 90
        8
 11
929.2106
 21
0.0
 31
0.0
330
1E8B
100
AcDbAssocArrayItem
 90
        0
 90
       75
 90
        0
 90
        0
 90
        8
 11
941.7675
 21
0.0
 31
0.0
330
1E8C
100
AcDbAssocArrayItem
 90
        0
 90
       76
 90
        0
 90
        0
 90
        8
 11
954.3244000000001
 21
0.0
 31
0.0
330
1E8D
100
AcDbAssocArrayItem
 90
        0
 90
       77
 90
        0
 90
        0
 90
        8
 11
966.8813
 21
0.0
 31
0.0
330
1E8E
 40
1.0
 40
0.0
 40
0.0
 40
375.593409784497
 40
0.0
 40
1.0
 40
0.0
 40
672.166529050138
 40
0.0
 40
0.0
 40
1.0
 40
0.0
 40
0.0
 40
0.0
 40
0.0
 40
1.0
  0
ACDBASSOCDEPENDENCY
  5
1E3C
330
1E38
100
AcDbAssocDependency
 90
        2
 90
        1
290
     0
290
     1
290
     1
290
     1
 90
        0
330
1E2A
290
     0
330
0
330
0
360
0
 90
        1
  0
ACDBASSOCDEPENDENCY
  5
1E3D
330
1E38
100
AcDbAssocDependency
 90
        2
 90
        1
290
     1
290
     0
290
     1
290
     1
 90
        0
330
1E27
290
     0
330
0
330
0
360
0
 90
        2
  0
ACDBASSOCDEPENDENCY
  5
1E3E
330
1E38
100
AcDbAssocDependency
 90
        2
 90
        0
290
     1
290
     1
290
     1
290
     1
 90
-2147483648
330
1E2D
290
     0
330
0
330
0
360
0
 90
        3
  0
ACDBASSOCARRAYACTIONBODY
  5
1F5D
330
1F5C
100
AcDbAssocActionBody
 90
        1
100
AcDbAssocParamBasedActionBody
 90
        0
 90
        0
 90
        3
360
1F5E
360
1F5F
360
1F63
 90
        0
 90
        9
 90
        0
  1
AlignItems
 90
        0
 90
        1
 90
        0
330
0
330
0
 90
        0
  1
AxesAngle
 90
        2
 90
        1
 40
1.570796326794896
330
0
330
0
 90
        0
  1
ItemSpacing
 90
        1
 90
        1
 40
12.5569
330
0
330
0
 90
        0
  1
Items
 90
        0
 90
        1
 90
       78
330
0
330
0
 90
        0
  1
LevelSpacing
 90
        1
 90
        1
 40
1.0
330
0
330
0
 90
        0
  1
Levels
 90
        0
 90
        1
 90
        1
330
0
330
0
 90
        0
  1
RowElevation
 90
        1
 90
        1
 40
0.0
330
0
330
0
 90
        0
  1
RowSpacing
 90
        1
 90
        1
 40
631.5000000000006
330
0
330
0
 90
        0
  1
Rows
 90
        0
 90
        1
 90
        1
330
0
330
0
100
AcDbAssocArrayActionBody
 90
        1
  1
AcDbAssocArrayRectangularParameters
 90
        0
 90
       78
  1
AcDbAssocArrayItem
100
AcDbAssocArrayItem
 90
        0
 90
        0
 90
        0
 90
        0
 90
        8
 11
0.0
 21
0.0
 31
0.0
330
1F65
100
AcDbAssocArrayItem
 90
        0
 90
        1
 90
        0
 90
        0
 90
        8
 11
12.5569
 21
0.0
 31
0.0
330
1F66
100
AcDbAssocArrayItem
 90
        0
 90
        2
 90
        0
 90
        0
 90
        8
 11
25.1138
 21
0.0
 31
0.0
330
1F67
100
AcDbAssocArrayItem
 90
        0
 90
        3
 90
        0
 90
        0
 90
        8
 11
37.6707
 21
0.0
 31
0.0
330
1F68
100
AcDbAssocArrayItem
 90
        0
 90
        4
 90
        0
 90
        0
 90
        8
 11
50.2276
 21
0.0
 31
0.0
330
1F69
100
AcDbAssocArrayItem
 90
        0
 90
        5
 90
        0
 90
        0
 90
        8
 11
62.7845
 21
0.0
 31
0.0
330
1F6A
100
AcDbAssocArrayItem
 90
        0
 90
        6
 90
        0
 90
        0
 90
        8
 11
75.3414
 21
0.0
 31
0.0
330
1F6B
100
AcDbAssocArrayItem
 90
        0
 90
        7
 90
        0
 90
        0
 90
        8
 11
87.8983
 21
0.0
 31
0.0
330
1F6C
100
AcDbAssocArrayItem
 90
        0
 90
        8
 90
        0
 90
        0
 90
        8
 11
100.4552
 21
0.0
 31
0.0
330
1F6D
100
AcDbAssocArrayItem
 90
        0
 90
        9
 90
        0
 90
        0
 90
        8
 11
113.0121
 21
0.0
 31
0.0
330
1F6E
100
AcDbAssocArrayItem
 90
        0
 90
       10
 90
        0
 90
        0
 90
        8
 11
125.569
 21
0.0
 31
0.0
330
1F6F
100
AcDbAssocArrayItem
 90
        0
 90
       11
 90
        0
 90
        0
 90
        8
 11
138.1259
 21
0.0
 31
0.0
330
1F70
100
AcDbAssocArrayItem
 90
        0
 90
       12
 90
        0
 90
        0
 90
        8
 11
150.6828
 21
0.0
 31
0.0
330
1F71
100
AcDbAssocArrayItem
 90
        0
 90
       13
 90
        0
 90
        0
 90
        8
 11
163.2397
 21
0.0
 31
0.0
330
1F72
100
AcDbAssocArrayItem
 90
        0
 90
       14
 90
        0
 90
        0
 90
        8
 11
175.7966
 21
0.0
 31
0.0
330
1F73
100
AcDbAssocArrayItem
 90
        0
 90
       15
 90
        0
 90
        0
 90
        8
 11
188.3535
 21
0.0
 31
0.0
330
1F74
100
AcDbAssocArrayItem
 90
        0
 90
       16
 90
        0
 90
        0
 90
        8
 11
200.9104
 21
0.0
 31
0.0
330
1F75
100
AcDbAssocArrayItem
 90
        0
 90
       17
 90
        0
 90
        0
 90
        8
 11
213.4673
 21
0.0
 31
0.0
330
1F76
100
AcDbAssocArrayItem
 90
        0
 90
       18
 90
        0
 90
        0
 90
        8
 11
226.0242
 21
0.0
 31
0.0
330
1F77
100
AcDbAssocArrayItem
 90
        0
 90
       19
 90
        0
 90
        0
 90
        8
 11
238.5811
 21
0.0
 31
0.0
330
1F78
100
AcDbAssocArrayItem
 90
        0
 90
       20
 90
        0
 90
        0
 90
        8
 11
251.138
 21
0.0
 31
0.0
330
1F79
100
AcDbAssocArrayItem
 90
        0
 90
       21
 90
        0
 90
        0
 90
        8
 11
263.6949
 21
0.0
 31
0.0
330
1F7A
100
AcDbAssocArrayItem
 90
        0
 90
       22
 90
        0
 90
        0
 90
        8
 11
276.2518
 21
0.0
 31
0.0
330
1F7B
100
AcDbAssocArrayItem
 90
        0
 90
       23
 90
        0
 90
        0
 90
        8
 11
288.8087
 21
0.0
 31
0.0
330
1F7C
100
AcDbAssocArrayItem
 90
        0
 90
       24
 90
        0
 90
        0
 90
        8
 11
301.3656000000001
 21
0.0
 31
0.0
330
1F7D
100
AcDbAssocArrayItem
 90
        0
 90
       25
 90
        0
 90
        0
 90
        8
 11
313.9225
 21
0.0
 31
0.0
330
1F7E
100
AcDbAssocArrayItem
 90
        0
 90
       26
 90
        0
 90
        0
 90
        8
 11
326.4794
 21
0.0
 31
0.0
330
1F7F
100
AcDbAssocArrayItem
 90
        0
 90
       27
 90
        0
 90
        0
 90
        8
 11
339.0363000000001
 21
0.0
 31
0.0
330
1F80
100
AcDbAssocArrayItem
 90
        0
 90
       28
 90
        0
 90
        0
 90
        8
 11
351.5932
 21
0.0
 31
0.0
330
1F81
100
AcDbAssocArrayItem
 90
        0
 90
       29
 90
        0
 90
        0
 90
        8
 11
364.1501
 21
0.0
 31
0.0
330
1F82
100
AcDbAssocArrayItem
 90
        0
 90
       30
 90
        0
 90
        0
 90
        8
 11
376.707
 21
0.0
 31
0.0
330
1F83
100
AcDbAssocArrayItem
 90
        0
 90
       31
 90
        0
 90
        0
 90
        8
 11
389.2639
 21
0.0
 31
0.0
330
1F84
100
AcDbAssocArrayItem
 90
        0
 90
       32
 90
        0
 90
        0
 90
        8
 11
401.8208
 21
0.0
 31
0.0
330
1F85
100
AcDbAssocArrayItem
 90
        0
 90
       33
 90
        0
 90
        0
 90
        8
 11
414.3777
 21
0.0
 31
0.0
330
1F86
100
AcDbAssocArrayItem
 90
        0
 90
       34
 90
        0
 90
        0
 90
        8
 11
426.9346
 21
0.0
 31
0.0
330
1F87
100
AcDbAssocArrayItem
 90
        0
 90
       35
 90
        0
 90
        0
 90
        8
 11
439.4915
 21
0.0
 31
0.0
330
1F88
100
AcDbAssocArrayItem
 90
        0
 90
       36
 90
        0
 90
        0
 90
        8
 11
452.0484
 21
0.0
 31
0.0
330
1F89
100
AcDbAssocArrayItem
 90
        0
 90
       37
 90
        0
 90
        0
 90
        8
 11
464.6053
 21
0.0
 31
0.0
330
1F8A
100
AcDbAssocArrayItem
 90
        0
 90
       38
 90
        0
 90
        0
 90
        8
 11
477.1622
 21
0.0
 31
0.0
330
1F8B
100
AcDbAssocArrayItem
 90
        0
 90
       39
 90
        0
 90
        0
 90
        8
 11
489.7191
 21
0.0
 31
0.0
330
1F8C
100
AcDbAssocArrayItem
 90
        0
 90
       40
 90
        0
 90
        0
 90
        8
 11
502.2759999999999
 21
0.0
 31
0.0
330
1F8D
100
AcDbAssocArrayItem
 90
        0
 90
       41
 90
        0
 90
        0
 90
        8
 11
514.8329
 21
0.0
 31
0.0
330
1F8E
100
AcDbAssocArrayItem
 90
        0
 90
       42
 90
        0
 90
        0
 90
        8
 11
527.3898
 21
0.0
 31
0.0
330
1F8F
100
AcDbAssocArrayItem
 90
        0
 90
       43
 90
        0
 90
        0
 90
        8
 11
539.9467
 21
0.0
 31
0.0
330
1F90
100
AcDbAssocArrayItem
 90
        0
 90
       44
 90
        0
 90
        0
 90
        8
 11
552.5036
 21
0.0
 31
0.0
330
1F91
100
AcDbAssocArrayItem
 90
        0
 90
       45
 90
        0
 90
        0
 90
        8
 11
565.0605
 21
0.0
 31
0.0
330
1F92
100
AcDbAssocArrayItem
 90
        0
 90
       46
 90
        0
 90
        0
 90
        8
 11
577.6174
 21
0.0
 31
0.0
330
1F93
100
AcDbAssocArrayItem
 90
        0
 90
       47
 90
        0
 90
        0
 90
        8
 11
590.1743
 21
0.0
 31
0.0
330
1F94
100
AcDbAssocArrayItem
 90
        0
 90
       48
 90
        0
 90
        0
 90
        8
 11
602.7312000000001
 21
0.0
 31
0.0
330
1F95
100
AcDbAssocArrayItem
 90
        0
 90
       49
 90
        0
 90
        0
 90
        8
 11
615.2880999999999
 21
0.0
 31
0.0
330
1F96
100
AcDbAssocArrayItem
 90
        0
 90
       50
 90
        0
 90
        0
 90
        8
 11
627.845
 21
0.0
 31
0.0
330
1F97
100
AcDbAssocArrayItem
 90
        0
 90
       51
 90
        0
 90
        0
 90
        8
 11
640.4019
 21
0.0
 31
0.0
330
1F98
100
AcDbAssocArrayItem
 90
        0
 90
       52
 90
        0
 90
        0
 90
        8
 11
652.9588
 21
0.0
 31
0.0
330
1F99
100
AcDbAssocArrayItem
 90
        0
 90
       53
 90
        0
 90
        0
 90
        8
 11
665.5157
 21
0.0
 31
0.0
330
1F9A
100
AcDbAssocArrayItem
 90
        0
 90
       54
 90
        0
 90
        0
 90
        8
 11
678.0726000000001
 21
0.0
 31
0.0
330
1F9B
100
AcDbAssocArrayItem
 90
        0
 90
       55
 90
        0
 90
        0
 90
        8
 11
690.6295
 21
0.0
 31
0.0
330
1F9C
100
AcDbAssocArrayItem
 90
        0
 90
       56
 90
        0
 90
        0
 90
        8
 11
703.1864
 21
0.0
 31
0.0
330
1F9D
100
AcDbAssocArrayItem
 90
        0
 90
       57
 90
        0
 90
        0
 90
        8
 11
715.7433000000001
 21
0.0
 31
0.0
330
1F9E
100
AcDbAssocArrayItem
 90
        0
 90
       58
 90
        0
 90
        0
 90
        8
 11
728.3002
 21
0.0
 31
0.0
330
1F9F
100
AcDbAssocArrayItem
 90
        0
 90
       59
 90
        0
 90
        0
 90
        8
 11
740.8571000000001
 21
0.0
 31
0.0
330
1FA0
100
AcDbAssocArrayItem
 90
        0
 90
       60
 90
        0
 90
        0
 90
        8
 11
753.4139999999999
 21
0.0
 31
0.0
330
1FA1
100
AcDbAssocArrayItem
 90
        0
 90
       61
 90
        0
 90
        0
 90
        8
 11
765.9709
 21
0.0
 31
0.0
330
1FA2
100
AcDbAssocArrayItem
 90
        0
 90
       62
 90
        0
 90
        0
 90
        8
 11
778.5278
 21
0.0
 31
0.0
330
1FA3
100
AcDbAssocArrayItem
 90
        0
 90
       63
 90
        0
 90
        0
 90
        8
 11
791.0847
 21
0.0
 31
0.0
330
1FA4
100
AcDbAssocArrayItem
 90
        0
 90
       64
 90
        0
 90
        0
 90
        8
 11
803.6416
 21
0.0
 31
0.0
330
1FA5
100
AcDbAssocArrayItem
 90
        0
 90
       65
 90
        0
 90
        0
 90
        8
 11
816.1985000000001
 21
0.0
 31
0.0
330
1FA6
100
AcDbAssocArrayItem
 90
        0
 90
       66
 90
        0
 90
        0
 90
        8
 11
828.7554
 21
0.0
 31
0.0
330
1FA7
100
AcDbAssocArrayItem
 90
        0
 90
       67
 90
        0
 90
        0
 90
        8
 11
841.3123
 21
0.0
 31
0.0
330
1FA8
100
AcDbAssocArrayItem
 90
        0
 90
       68
 90
        0
 90
        0
 90
        8
 11
853.8692000000001
 21
0.0
 31
0.0
330
1FA9
100
AcDbAssocArrayItem
 90
        0
 90
       69
 90
        0
 90
        0
 90
        8
 11
866.4260999999999
 21
0.0
 31
0.0
330
1FAA
100
AcDbAssocArrayItem
 90
        0
 90
       70
 90
        0
 90
        0
 90
        8
 11
878.983
 21
0.0
 31
0.0
330
1FAB
100
AcDbAssocArrayItem
 90
        0
 90
       71
 90
        0
 90
        0
 90
        8
 11
891.5399
 21
0.0
 31
0.0
330
1FAC
100
AcDbAssocArrayItem
 90
        0
 90
       72
 90
        0
 90
        0
 90
        8
 11
904.0968000000001
 21
0.0
 31
0.0
330
1FAD
100
AcDbAssocArrayItem
 90
        0
 90
       73
 90
        0
 90
        0
 90
        8
 11
916.6537000000001
 21
0.0
 31
0.0
330
1FAE
100
AcDbAssocArrayItem
 90
        0
 90
       74
 90
        0
 90
        0
 90
        8
 11
929.2106
 21
0.0
 31
0.0
330
1FAF
100
AcDbAssocArrayItem
 90
        0
 90
       75
 90
        0
 90
        0
 90
        8
 11
941.7675
 21
0.0
 31
0.0
330
1FB0
100
AcDbAssocArrayItem
 90
        0
 90
       76
 90
        0
 90
        0
 90
        8
 11
954.3244000000001
 21
0.0
 31
0.0
330
1FB1
100
AcDbAssocArrayItem
 90
        0
 90
       77
 90
        0
 90
        0
 90
        8
 11
966.8813
 21
0.0
 31
0.0
330
1FB2
 40
1.0
 40
0.0
 40
0.0
 40
374.0934097994973
 40
0.0
 40
1.0
 40
0.0
 40
1418.657346744574
 40
0.0
 40
0.0
 40
1.0
 40
0.0
 40
0.0
 40
0.0
 40
0.0
 40
1.0
  0
ACDBASSOCDEPENDENCY
  5
1F60
330
1F5C
100
AcDbAssocDependency
 90
        2
 90
        1
290
     0
290
     1
290
     1
290
     1
 90
        0
330
1F15
290
     0
330
0
330
0
360
0
 90
        1
  0
ACDBASSOCDEPENDENCY
  5
1F61
330
1F5C
100
AcDbAssocDependency
 90
        2
 90
        1
290
     1
290
     0
290
     1
290
     1
 90
        0
330
1F12
290
     0
330
0
330
0
360
0
 90
        2
  0
ACDBASSOCDEPENDENCY
  5
1F62
330
1F5C
100
AcDbAssocDependency
 90
        2
 90
        0
290
     1
290
     1
290
     1
290
     1
 90
-2147483648
330
1F18
290
     0
330
0
330
0
360
0
 90
        3
  0
ACDBASSOCVERTEXACTIONPARAM
  5
1E3A
330
1E39
100
AcDbAssocActionParam
 90
        0
  1
BaseNormal
100
AcDbAssocSingleDependencyActionParam
 90
        0
330
0
100
AcDbAssocVertexActionParam
 90
        0
 10
0.0
 20
0.0
 30
1.0
  0
ACDBASSOCVERTEXACTIONPARAM
  5
1E3B
330
1E39
100
AcDbAssocActionParam
 90
        0
  1
Origin
100
AcDbAssocSingleDependencyActionParam
 90
        0
330
0
100
AcDbAssocVertexActionParam
 90
        0
 10
0.0
 20
0.0
 30
0.0
  0
ACDBASSOCVERTEXACTIONPARAM
  5
1E3F
330
1E39
100
AcDbAssocActionParam
 90
        0
  1
basePoint
100
AcDbAssocSingleDependencyActionParam
 90
        0
330
0
100
AcDbAssocVertexActionParam
 90
        0
 10
0.0
 20
0.0
 30
0.0
  0
ACDBASSOCVERTEXACTIONPARAM
  5
1F5E
330
1F5D
100
AcDbAssocActionParam
 90
        0
  1
BaseNormal
100
AcDbAssocSingleDependencyActionParam
 90
        0
330
0
100
AcDbAssocVertexActionParam
 90
        0
 10
0.0
 20
0.0
 30
1.0
  0
ACDBASSOCVERTEXACTIONPARAM
  5
1F5F
330
1F5D
100
AcDbAssocActionParam
 90
        0
  1
Origin
100
AcDbAssocSingleDependencyActionParam
 90
        0
330
0
100
AcDbAssocVertexActionParam
 90
        0
 10
0.0
 20
0.0
 30
0.0
  0
ACDBASSOCVERTEXACTIONPARAM
  5
1F63
330
1F5D
100
AcDbAssocActionParam
 90
        0
  1
basePoint
100
AcDbAssocSingleDependencyActionParam
 90
        0
330
0
100
AcDbAssocVertexActionParam
 90
        0
 10
0.0
 20
0.0
 30
0.0
  0
ENDSEC
  0
EOF
